  0
SECTION
  2
HEADER
  9
$ACADVER
  1
AC1018
  9
$ACADMAINTVER
 70
     0
  9
$DWGCODEPAGE
  3
ANSI_1252
  9
$INSBASE
 10
0.0
 20
0.0
 30
0.0
  9
$EXTMIN
 10
-423.79999923744
 20
-253.3753521426991
 30
0.0
  9
$EXTMAX
 10
-126.799999237442
 20
-43.37535214269894
 30
0.0
  9
$LIMMIN
 10
0.0
 20
0.0
  9
$LIMMAX
 10
12.0
 20
9.0
  9
$ORTHOMODE
 70
     0
  9
$REGENMODE
 70
     1
  9
$FILLMODE
 70
     1
  9
$QTEXTMODE
 70
     0
  9
$MIRRTEXT
 70
     1
  9
$LTSCALE
 40
1.0
  9
$ATTMODE
 70
     1
  9
$TEXTSIZE
 40
0.2
  9
$TRACEWID
 40
0.05
  9
$TEXTSTYLE
  7
Standard
  9
$CLAYER
  8
0
  9
$CELTYPE
  6
ByLayer
  9
$CECOLOR
 62
   256
  9
$CELTSCALE
 40
1.0
  9
$DISPSILH
 70
     0
  9
$DIMSCALE
 40
1.0
  9
$DIMASZ
 40
0.18
  9
$DIMEXO
 40
0.0625
  9
$DIMDLI
 40
0.38
  9
$DIMRND
 40
0.0
  9
$DIMDLE
 40
0.0
  9
$DIMEXE
 40
0.18
  9
$DIMTP
 40
0.0
  9
$DIMTM
 40
0.0
  9
$DIMTXT
 40
0.18
  9
$DIMCEN
 40
0.09
  9
$DIMTSZ
 40
0.0
  9
$DIMTOL
 70
     0
  9
$DIMLIM
 70
     0
  9
$DIMTIH
 70
     1
  9
$DIMTOH
 70
     1
  9
$DIMSE1
 70
     0
  9
$DIMSE2
 70
     0
  9
$DIMTAD
 70
     0
  9
$DIMZIN
 70
     0
  9
$DIMBLK
  1

  9
$DIMASO
 70
     1
  9
$DIMSHO
 70
     1
  9
$DIMPOST
  1

  9
$DIMAPOST
  1

  9
$DIMALT
 70
     0
  9
$DIMALTD
 70
     2
  9
$DIMALTF
 40
25.4
  9
$DIMLFAC
 40
1.0
  9
$DIMTOFL
 70
     0
  9
$DIMTVP
 40
0.0
  9
$DIMTIX
 70
     0
  9
$DIMSOXD
 70
     0
  9
$DIMSAH
 70
     0
  9
$DIMBLK1
  1

  9
$DIMBLK2
  1

  9
$DIMSTYLE
  2
Standard
  9
$DIMCLRD
 70
     0
  9
$DIMCLRE
 70
     0
  9
$DIMCLRT
 70
     0
  9
$DIMTFAC
 40
1.0
  9
$DIMGAP
 40
0.09
  9
$DIMJUST
 70
     0
  9
$DIMSD1
 70
     0
  9
$DIMSD2
 70
     0
  9
$DIMTOLJ
 70
     1
  9
$DIMTZIN
 70
     0
  9
$DIMALTZ
 70
     0
  9
$DIMALTTZ
 70
     0
  9
$DIMUPT
 70
     0
  9
$DIMDEC
 70
     4
  9
$DIMTDEC
 70
     4
  9
$DIMALTU
 70
     2
  9
$DIMALTTD
 70
     2
  9
$DIMTXSTY
  7
Standard
  9
$DIMAUNIT
 70
     0
  9
$DIMADEC
 70
     0
  9
$DIMALTRND
 40
0.0
  9
$DIMAZIN
 70
     0
  9
$DIMDSEP
 70
    46
  9
$DIMATFIT
 70
     3
  9
$DIMFRAC
 70
     0
  9
$DIMLDRBLK
  1

  9
$DIMLUNIT
 70
     2
  9
$DIMLWD
 70
    -2
  9
$DIMLWE
 70
    -2
  9
$DIMTMOVE
 70
     0
  9
$LUNITS
 70
     2
  9
$LUPREC
 70
     4
  9
$SKETCHINC
 40
0.1
  9
$FILLETRAD
 40
0.5
  9
$AUNITS
 70
     0
  9
$AUPREC
 70
     0
  9
$MENU
  1
.
  9
$ELEVATION
 40
0.0
  9
$PELEVATION
 40
0.0
  9
$THICKNESS
 40
0.0
  9
$LIMCHECK
 70
     0
  9
$CHAMFERA
 40
0.5
  9
$CHAMFERB
 40
0.5
  9
$CHAMFERC
 40
1.0
  9
$CHAMFERD
 40
0.0
  9
$SKPOLY
 70
     0
  9
$TDCREATE
 40
2458222.374580231
  9
$TDUCREATE
 40
2458222.291246898
  9
$TDUPDATE
 40
2458222.374580775
  9
$TDUUPDATE
 40
2458222.291247442
  9
$TDINDWG
 40
0.0000000116
  9
$TDUSRTIMER
 40
0.0000000116
  9
$USRTIMER
 70
     1
  9
$ANGBASE
 50
0.0
  9
$ANGDIR
 70
     0
  9
$PDMODE
 70
     0
  9
$PDSIZE
 40
0.0
  9
$PLINEWID
 40
0.0
  9
$SPLFRAME
 70
     0
  9
$SPLINETYPE
 70
     6
  9
$SPLINESEGS
 70
     8
  9
$HANDSEED
  5
36D
  9
$SURFTAB1
 70
     6
  9
$SURFTAB2
 70
     6
  9
$SURFTYPE
 70
     6
  9
$SURFU
 70
     6
  9
$SURFV
 70
     6
  9
$UCSBASE
  2

  9
$UCSNAME
  2

  9
$UCSORG
 10
0.0
 20
0.0
 30
0.0
  9
$UCSXDIR
 10
1.0
 20
0.0
 30
0.0
  9
$UCSYDIR
 10
0.0
 20
1.0
 30
0.0
  9
$UCSORTHOREF
  2

  9
$UCSORTHOVIEW
 70
     0
  9
$UCSORGTOP
 10
0.0
 20
0.0
 30
0.0
  9
$UCSORGBOTTOM
 10
0.0
 20
0.0
 30
0.0
  9
$UCSORGLEFT
 10
0.0
 20
0.0
 30
0.0
  9
$UCSORGRIGHT
 10
0.0
 20
0.0
 30
0.0
  9
$UCSORGFRONT
 10
0.0
 20
0.0
 30
0.0
  9
$UCSORGBACK
 10
0.0
 20
0.0
 30
0.0
  9
$PUCSBASE
  2

  9
$PUCSNAME
  2

  9
$PUCSORG
 10
0.0
 20
0.0
 30
0.0
  9
$PUCSXDIR
 10
1.0
 20
0.0
 30
0.0
  9
$PUCSYDIR
 10
0.0
 20
1.0
 30
0.0
  9
$PUCSORTHOREF
  2

  9
$PUCSORTHOVIEW
 70
     0
  9
$PUCSORGTOP
 10
0.0
 20
0.0
 30
0.0
  9
$PUCSORGBOTTOM
 10
0.0
 20
0.0
 30
0.0
  9
$PUCSORGLEFT
 10
0.0
 20
0.0
 30
0.0
  9
$PUCSORGRIGHT
 10
0.0
 20
0.0
 30
0.0
  9
$PUCSORGFRONT
 10
0.0
 20
0.0
 30
0.0
  9
$PUCSORGBACK
 10
0.0
 20
0.0
 30
0.0
  9
$USERI1
 70
     0
  9
$USERI2
 70
     0
  9
$USERI3
 70
     0
  9
$USERI4
 70
     0
  9
$USERI5
 70
     0
  9
$USERR1
 40
18.1
  9
$USERR2
 40
0.0
  9
$USERR3
 40
0.0
  9
$USERR4
 40
0.0
  9
$USERR5
 40
0.0
  9
$WORLDVIEW
 70
     1
  9
$SHADEDGE
 70
     3
  9
$SHADEDIF
 70
    70
  9
$TILEMODE
 70
     1
  9
$MAXACTVP
 70
    64
  9
$PINSBASE
 10
0.0
 20
0.0
 30
0.0
  9
$PLIMCHECK
 70
     0
  9
$PEXTMIN
 10
1.00000000000000E+20
 20
1.00000000000000E+20
 30
1.00000000000000E+20
  9
$PEXTMAX
 10
-1.00000000000000E+20
 20
-1.00000000000000E+20
 30
-1.00000000000000E+20
  9
$PLIMMIN
 10
0.0
 20
0.0
  9
$PLIMMAX
 10
12.0
 20
9.0
  9
$UNITMODE
 70
     0
  9
$VISRETAIN
 70
     1
  9
$PLINEGEN
 70
     0
  9
$PSLTSCALE
 70
     1
  9
$TREEDEPTH
 70
  3020
  9
$CMLSTYLE
  2
Standard
  9
$CMLJUST
 70
     0
  9
$CMLSCALE
 40
1.0
  9
$PROXYGRAPHICS
 70
     1
  9
$MEASUREMENT
 70
     1
  9
$CELWEIGHT
370
    -1
  9
$ENDCAPS
280
     0
  9
$JOINSTYLE
280
     0
  9
$LWDISPLAY
290
     0
  9
$INSUNITS
 70
     4
  9
$HYPERLINKBASE
  1

  9
$STYLESHEET
  1

  9
$XEDIT
290
     1
  9
$CEPSNTYPE
380
     0
  9
$PSTYLEMODE
290
     1
  9
$FINGERPRINTGUID
  2
{AB10A871-41D8-4C4C-8C50-E6E544840EEA}
  9
$VERSIONGUID
  2
{FAEB1C32-E019-11D5-929B-00C0DF256EC4}
  9
$EXTNAMES
290
     1
  9
$PSVPSCALE
 40
0.0
  9
$OLESTARTUP
290
     0
  9
$SORTENTS
280
   127
  9
$INDEXCTL
280
     0
  9
$HIDETEXT
280
     1
  9
$XCLIPFRAME
290
     0
  9
$HALOGAP
280
     0
  9
$OBSCOLOR
 70
   257
  9
$OBSLTYPE
280
     0
  9
$INTERSECTIONDISPLAY
280
     0
  9
$INTERSECTIONCOLOR
 70
   257
  9
$DIMASSOC
280
     2
  9
$PROJECTNAME
  1

  0
ENDSEC
  0
SECTION
  2
CLASSES
  0
CLASS
  1
ACDBDICTIONARYWDFLT
  2
AcDbDictionaryWithDefault
  3
ObjectDBX Classes
 90
        0
 91
        4
280
     0
281
     0
  0
CLASS
  1
VISUALSTYLE
  2
AcDbVisualStyle
  3
ObjectDBX Classes
 90
     4095
 91
        4
280
     0
281
     0
  0
CLASS
  1
MATERIAL
  2
AcDbMaterial
  3
ObjectDBX Classes
 90
     1153
 91
        4
280
     0
281
     0
  0
ENDSEC
  0
SECTION
  2
TABLES
  0
TABLE
  2
VPORT
  5
8
330
0
100
AcDbSymbolTable
 70
     1
  0
VPORT
  5
29
330
8
100
AcDbSymbolTableRecord
100
AcDbViewportTableRecord
  2
*Active
 70
     0
 10
0.0
 20
0.0
 11
1.0
 21
1.0
 12
-275.299999237441
 22
-148.375352142699
 13
0.0
 23
0.0
 14
0.5
 24
0.5
 15
0.5
 25
0.5
 16
0.0
 26
0.0
 36
1.0
 17
0.0
 27
0.0
 37
0.0
 40
231.0000000000002
 41
1.60267857142857
 42
50.0
 43
0.0
 44
0.0
 50
0.0
 51
0.0
 71
     0
 72
   100
 73
     1
 74
     3
 75
     0
 76
     0
 77
     0
 78
     0
281
     0
 65
     1
110
0.0
120
0.0
130
0.0
111
1.0
121
0.0
131
0.0
112
0.0
122
1.0
132
0.0
 79
     0
146
0.0
  0
ENDTAB
  0
TABLE
  2
LTYPE
  5
5
330
0
100
AcDbSymbolTable
 70
     8
  0
LTYPE
  5
14
330
5
100
AcDbSymbolTableRecord
100
AcDbLinetypeTableRecord
  2
ByBlock
 70
     0
  3

 72
    65
 73
     0
 40
0.0
  0
LTYPE
  5
15
330
5
100
AcDbSymbolTableRecord
100
AcDbLinetypeTableRecord
  2
ByLayer
 70
     0
  3

 72
    65
 73
     0
 40
0.0
  0
LTYPE
  5
16
330
5
100
AcDbSymbolTableRecord
100
AcDbLinetypeTableRecord
  2
Continuous
 70
     0
  3
Solid line
 72
    65
 73
     0
 40
0.0
  0
LTYPE
  5
3F
330
5
100
AcDbSymbolTableRecord
100
AcDbLinetypeTableRecord
  2
DASHED
 70
     0
  3
Dashed
 72
    65
 73
     2
 40
15.0
 49
7.0
 74
     0
 49
-8.0
 74
     0
  0
LTYPE
  5
40
330
5
100
AcDbSymbolTableRecord
100
AcDbLinetypeTableRecord
  2
DOTTED
 70
     0
  3
Dotted
 72
    65
 73
     2
 40
1.0
 49
0.0
 74
     0
 49
-1.0
 74
     0
  0
LTYPE
  5
41
330
5
100
AcDbSymbolTableRecord
100
AcDbLinetypeTableRecord
  2
DOT_CENTER
 70
     0
  3
Dot_Center
 72
    65
 73
     4
 40
14.0
 49
12.0
 74
     0
 49
-1.0
 74
     0
 49
0.0
 74
     0
 49
-1.0
 74
     0
  0
LTYPE
  5
42
330
5
100
AcDbSymbolTableRecord
100
AcDbLinetypeTableRecord
  2
LONG_DASHED
 70
     0
  3
Long_Dashed
 72
    65
 73
     2
 40
15.0
 49
10.0
 74
     0
 49
-5.0
 74
     0
  0
LTYPE
  5
43
330
5
100
AcDbSymbolTableRecord
100
AcDbLinetypeTableRecord
  2
DASH_CENTER
 70
     0
  3
Dash_Center
 72
    65
 73
     4
 40
14.0
 49
11.0
 74
     0
 49
-1.0
 74
     0
 49
1.0
 74
     0
 49
-1.0
 74
     0
  0
LTYPE
  5
44
330
5
100
AcDbSymbolTableRecord
100
AcDbLinetypeTableRecord
  2
PHANTOM
 70
     0
  3
Phantom
 72
    65
 73
     6
 40
13.0
 49
10.0
 74
     0
 49
-1.0
 74
     0
 49
0.0
 74
     0
 49
-1.0
 74
     0
 49
0.0
 74
     0
 49
-1.0
 74
     0
  0
LTYPE
  5
45
330
5
100
AcDbSymbolTableRecord
100
AcDbLinetypeTableRecord
  2
CENTER_DASH_DASH
 70
     0
  3
Center_Dash_Dash
 72
    65
 73
     6
 40
14.0
 49
9.0
 74
     0
 49
-1.0
 74
     0
 49
1.0
 74
     0
 49
-1.0
 74
     0
 49
1.0
 74
     0
 49
-1.0
 74
     0
  0
ENDTAB
  0
TABLE
  2
LAYER
  5
2
330
0
100
AcDbSymbolTable
 70
     2
  0
LAYER
  5
10
330
2
100
AcDbSymbolTableRecord
100
AcDbLayerTableRecord
  2
0
 70
     0
 62
     7
  6
Continuous
370
    -3
390
F
  0
LAYER
  5
46
330
2
100
AcDbSymbolTableRecord
100
AcDbLayerTableRecord
  2
1
 70
     0
 62
     7
  6
Continuous
370
    -3
390
F
  0
ENDTAB
  0
TABLE
  2
STYLE
  5
3
330
0
100
AcDbSymbolTable
 70
     5
  0
STYLE
  5
11
330
3
100
AcDbSymbolTableRecord
100
AcDbTextStyleTableRecord
  2
Standard
 70
     0
 40
0.0
 41
1.0
 50
0.0
 71
     0
 42
0.2
  3
txt
  4

  0
STYLE
  5
101
330
3
100
AcDbSymbolTableRecord
100
AcDbTextStyleTableRecord
  2
CONVERTER_11
 70
     0
 40
0.0
 41
0.9
 50
0.0
 71
     0
 42
0.2
  3
txt.shx
  4

  0
STYLE
  5
303
330
3
100
AcDbSymbolTableRecord
100
AcDbTextStyleTableRecord
  2
CONVERTER_12
 70
     0
 40
0.0
 41
0.81
 50
0.0
 71
     0
 42
0.2
  3
txt.shx
  4

  0
STYLE
  5
309
330
3
100
AcDbSymbolTableRecord
100
AcDbTextStyleTableRecord
  2
CONVERTER_13
 70
     0
 40
0.0
 41
0.855
 50
0.0
 71
     0
 42
0.2
  3
txt.shx
  4

  0
STYLE
  5
30C
330
3
100
AcDbSymbolTableRecord
100
AcDbTextStyleTableRecord
  2
CONVERTER_14
 70
     0
 40
0.0
 41
0.72
 50
0.0
 71
     0
 42
0.2
  3
txt.shx
  4

  0
ENDTAB
  0
TABLE
  2
VIEW
  5
6
330
0
100
AcDbSymbolTable
 70
     0
  0
ENDTAB
  0
TABLE
  2
UCS
  5
7
330
0
100
AcDbSymbolTable
 70
     0
  0
ENDTAB
  0
TABLE
  2
APPID
  5
9
330
0
100
AcDbSymbolTable
 70
     1
  0
APPID
  5
12
330
9
100
AcDbSymbolTableRecord
100
AcDbRegAppTableRecord
  2
ACAD
 70
     0
  0
ENDTAB
  0
TABLE
  2
DIMSTYLE
  5
A
330
0
100
AcDbSymbolTable
 70
     5
100
AcDbDimStyleTable
  0
DIMSTYLE
105
27
330
A
100
AcDbSymbolTableRecord
100
AcDbDimStyleTableRecord
  2
Standard
 70
     0
178
     0
340
11
  0
DIMSTYLE
105
155
102
{ACAD_REACTORS
330
156
102
}
330
A
100
AcDbSymbolTableRecord
100
AcDbDimStyleTableRecord
  2
ME10_DIM_10
 70
     0
 41
1.75
 42
0.0
 44
0.75
 73
     0
 74
     0
 77
     1
 78
     8
140
1.75
147
0.75
172
     1
173
     1
174
     1
175
     1
176
     2
177
     2
178
     3
340
101
  0
DIMSTYLE
105
1F4
102
{ACAD_REACTORS
330
1F5
102
}
330
A
100
AcDbSymbolTableRecord
100
AcDbDimStyleTableRecord
  2
ME10_DIM_11
 70
     0
 41
1.75
 42
0.0
 44
0.75
 73
     0
 74
     0
 77
     1
 78
     8
140
1.75
147
0.75
172
     1
173
     1
174
     1
175
     1
176
     2
177
     2
178
     3
340
101
  0
DIMSTYLE
105
1FF
102
{ACAD_REACTORS
330
200
102
}
330
A
100
AcDbSymbolTableRecord
100
AcDbDimStyleTableRecord
  2
ME10_DIM_12
 70
     0
 41
1.75
 42
0.0
 44
0.75
 73
     0
 74
     0
 77
     1
 78
     8
140
1.75
147
0.75
172
     1
173
     1
174
     1
175
     1
176
     2
177
     2
178
     3
340
101
  0
DIMSTYLE
105
20A
102
{ACAD_REACTORS
330
20B
102
}
330
A
100
AcDbSymbolTableRecord
100
AcDbDimStyleTableRecord
  2
ME10_DIM_13
 70
     0
 41
1.75
 42
0.0
 44
0.75
 73
     0
 74
     0
 77
     1
 78
     8
140
1.75
147
0.75
172
     1
173
     1
174
     1
175
     1
176
     2
177
     2
271
     2
178
     3
271
     2
340
101
  0
ENDTAB
  0
TABLE
  2
BLOCK_RECORD
  5
1
330
0
100
AcDbSymbolTable
 70
    21
  0
BLOCK_RECORD
  5
1F
330
1
100
AcDbSymbolTableRecord
100
AcDbBlockTableRecord
  2
*Model_Space
340
22
  0
BLOCK_RECORD
  5
1B
330
1
100
AcDbSymbolTableRecord
100
AcDbBlockTableRecord
  2
*Paper_Space
340
1E
  0
BLOCK_RECORD
  5
23
330
1
100
AcDbSymbolTableRecord
100
AcDbBlockTableRecord
  2
*Paper_Space0
340
26
  0
BLOCK_RECORD
  5
47
330
1
100
AcDbSymbolTableRecord
100
AcDbBlockTableRecord
  2
AKG_35_BU-select__1
340
0
102
{BLKREFS
331
4B
102
}
  0
BLOCK_RECORD
  5
4A
330
1
100
AcDbSymbolTableRecord
100
AcDbBlockTableRecord
  2
Allg1
340
0
102
{BLKREFS
331
7D
102
}
  0
BLOCK_RECORD
  5
4E
330
1
100
AcDbSymbolTableRecord
100
AcDbBlockTableRecord
  2
AKG_35_BU-select__2
340
0
102
{BLKREFS
331
52
102
}
  0
BLOCK_RECORD
  5
51
330
1
100
AcDbSymbolTableRecord
100
AcDbBlockTableRecord
  2
Drfsicht1
340
0
102
{BLKREFS
331
7E
102
}
  0
BLOCK_RECORD
  5
55
330
1
100
AcDbSymbolTableRecord
100
AcDbBlockTableRecord
  2
AKG_35_BU-select__3
340
0
102
{BLKREFS
331
59
102
}
  0
BLOCK_RECORD
  5
58
330
1
100
AcDbSymbolTableRecord
100
AcDbBlockTableRecord
  2
Rckans1
340
0
102
{BLKREFS
331
7F
102
}
  0
BLOCK_RECORD
  5
5C
330
1
100
AcDbSymbolTableRecord
100
AcDbBlockTableRecord
  2
AKG_35_BU-select__4
340
0
102
{BLKREFS
331
60
102
}
  0
BLOCK_RECORD
  5
5F
330
1
100
AcDbSymbolTableRecord
100
AcDbBlockTableRecord
  2
SA_Links1
340
0
102
{BLKREFS
331
80
102
}
  0
BLOCK_RECORD
  5
63
330
1
100
AcDbSymbolTableRecord
100
AcDbBlockTableRecord
  2
AKG_35_BU-select__5
340
0
102
{BLKREFS
331
67
102
}
  0
BLOCK_RECORD
  5
66
330
1
100
AcDbSymbolTableRecord
100
AcDbBlockTableRecord
  2
SA_Rechts1
340
0
102
{BLKREFS
331
81
102
}
  0
BLOCK_RECORD
  5
6A
330
1
100
AcDbSymbolTableRecord
100
AcDbBlockTableRecord
  2
AKG_35_BU-select__6
340
0
102
{BLKREFS
331
6E
102
}
  0
BLOCK_RECORD
  5
6D
330
1
100
AcDbSymbolTableRecord
100
AcDbBlockTableRecord
  2
Vordans1
340
0
102
{BLKREFS
331
82
102
}
  0
BLOCK_RECORD
  5
71
330
1
100
AcDbSymbolTableRecord
100
AcDbBlockTableRecord
  2
_rahmen
340
0
102
{BLKREFS
331
78
102
}
  0
BLOCK_RECORD
  5
74
330
1
100
AcDbSymbolTableRecord
100
AcDbBlockTableRecord
  2
_punkt
340
0
102
{BLKREFS
331
79
102
}
  0
BLOCK_RECORD
  5
77
330
1
100
AcDbSymbolTableRecord
100
AcDbBlockTableRecord
  2
A4I_CS
340
0
102
{BLKREFS
331
83
102
}
  0
BLOCK_RECORD
  5
7C
330
1
100
AcDbSymbolTableRecord
100
AcDbBlockTableRecord
  2
1
340
0
102
{BLKREFS
331
86
102
}
  0
BLOCK_RECORD
  5
14C
330
1
100
AcDbSymbolTableRecord
100
AcDbBlockTableRecord
  2
*D17
340
0
  0
BLOCK_RECORD
  5
1EB
330
1
100
AcDbSymbolTableRecord
100
AcDbBlockTableRecord
  2
*D18
340
0
  0
BLOCK_RECORD
  5
1F6
330
1
100
AcDbSymbolTableRecord
100
AcDbBlockTableRecord
  2
*D19
340
0
  0
BLOCK_RECORD
  5
201
330
1
100
AcDbSymbolTableRecord
100
AcDbBlockTableRecord
  2
*D20
340
0
  0
ENDTAB
  0
ENDSEC
  0
SECTION
  2
BLOCKS
  0
BLOCK
  5
20
330
1F
100
AcDbEntity
  8
0
100
AcDbBlockBegin
  2
*Model_Space
 70
     0
 10
0.0
 20
0.0
 30
0.0
  3
*Model_Space
  1

  0
ENDBLK
  5
21
330
1F
100
AcDbEntity
  8
0
100
AcDbBlockEnd
  0
BLOCK
  5
1C
330
1B
100
AcDbEntity
 67
     1
  8
0
100
AcDbBlockBegin
  2
*Paper_Space
 70
     0
 10
0.0
 20
0.0
 30
0.0
  3
*Paper_Space
  1

  0
ENDBLK
  5
1D
330
1B
100
AcDbEntity
 67
     1
  8
0
100
AcDbBlockEnd
  0
BLOCK
  5
24
330
23
100
AcDbEntity
  8
0
100
AcDbBlockBegin
  2
*Paper_Space0
 70
     0
 10
0.0
 20
0.0
 30
0.0
  3
*Paper_Space0
  1

  0
ENDBLK
  5
25
330
23
100
AcDbEntity
  8
0
100
AcDbBlockEnd
  0
BLOCK
  5
48
330
47
100
AcDbEntity
  8
0
100
AcDbBlockBegin
  2
AKG_35_BU-select__1
 70
     0
 10
-169.2538871409321
 20
-212.5052052248848
 30
0.0
  3
AKG_35_BU-select__1
  1

  0
LINE
  5
87
330
47
100
AcDbEntity
  8
0
  6
Continuous
 62
     7
100
AcDbLine
 10
-163.3130219051109
 20
-166.4196233138138
 30
0.0
 11
-163.6810827017193
 21
-165.3021345861458
 31
0.0
  0
LINE
  5
88
330
47
100
AcDbEntity
  8
0
  6
Continuous
 62
     7
100
AcDbLine
 10
-163.6810827017193
 20
-165.3021345861458
 30
0.0
 11
-162.9310827017193
 21
-164.6526155333074
 31
0.0
  0
LINE
  5
89
330
47
100
AcDbEntity
  8
0
  6
Continuous
 62
     7
100
AcDbLine
 10
-160.6252515272809
 20
-190.5204666646546
 30
0.0
 11
-160.6252515272808
 21
-188.3554031551936
 31
0.0
  0
LINE
  5
8A
330
47
100
AcDbEntity
  8
0
  6
Continuous
 62
     7
100
AcDbLine
 10
-159.4561172321719
 20
-201.2502715100679
 30
0.0
 11
-159.4561172321719
 21
-204.1081553425565
 31
0.0
  0
LINE
  5
8B
330
47
100
AcDbEntity
  8
0
  6
Continuous
 62
     7
100
AcDbLine
 10
-159.4561172321719
 20
-204.1081553425565
 30
0.0
 11
-158.4811172321719
 21
-203.2637805738667
 31
0.0
  0
LINE
  5
8C
330
47
100
AcDbEntity
  8
0
  6
Continuous
 62
     7
100
AcDbLine
 10
-159.7716616887947
 20
-187.6161726706523
 30
0.0
 11
-159.7716616887947
 21
-175.4959622061029
 31
0.0
  0
LINE
  5
8D
330
47
100
AcDbEntity
  8
0
  6
Continuous
 62
     7
100
AcDbLine
 10
-162.9310827017193
 20
-164.6526155333074
 30
0.0
 11
-163.2564783371219
 21
-163.6646647438033
 31
0.0
  0
LINE
  5
8E
330
47
100
AcDbEntity
  8
0
  6
Continuous
 62
     7
100
AcDbLine
 10
-146.3437161973263
 20
-172.992555703639
 30
0.0
 11
-143.7687161973263
 21
-170.7625402888941
 31
0.0
  0
LINE
  5
8F
330
47
100
AcDbEntity
  8
0
  6
Continuous
 62
     7
100
AcDbLine
 10
-145.6938450667299
 20
-173.9307126896797
 30
0.0
 11
-168.8167233477742
 21
-167.2557126896798
 31
0.0
  0
LINE
  5
90
330
47
100
AcDbEntity
  8
0
  6
Continuous
 62
     7
100
AcDbLine
 10
-140.9178831724065
 20
-187.9533850275961
 30
0.0
 11
-141.8928831724065
 21
-188.7977597962859
 31
0.0
  0
LINE
  5
91
330
47
100
AcDbEntity
  8
0
  6
Continuous
 62
     7
100
AcDbLine
 10
-143.6596299969335
 20
-170.7940307624749
 30
0.0
 11
-143.7687161973263
 21
-170.7625402888941
 31
0.0
  0
LINE
  5
92
330
47
100
AcDbEntity
  8
0
  6
Continuous
 62
     7
100
AcDbLine
 10
-143.7687161973263
 20
-170.7625402888941
 30
0.0
 11
-143.7687161973263
 21
-169.4635021832174
 31
0.0
  0
LINE
  5
93
330
47
100
AcDbEntity
  8
0
  6
Continuous
 62
     7
100
AcDbLine
 10
-156.6075429803
 20
-167.0562902392796
 30
0.0
 11
-156.6075429803
 21
-165.757252133603
 31
0.0
  0
LINE
  5
94
330
47
100
AcDbEntity
  8
0
  6
Continuous
 62
     7
100
AcDbLine
 10
-156.6075429803
 20
-165.757252133603
 30
0.0
 11
-155.3734564361683
 21
-166.1135022328318
 31
0.0
  0
LINE
  5
95
330
47
100
AcDbEntity
  8
0
  6
Continuous
 62
     7
100
AcDbLine
 10
-155.3734564361683
 20
-166.1135022328318
 30
0.0
 11
-159.0734564361684
 21
-169.3177962268343
 31
0.0
  0
LINE
  5
96
330
47
100
AcDbEntity
  8
0
  6
Continuous
 62
     7
100
AcDbLine
 10
-160.3075429803
 20
-168.9615461276054
 30
0.0
 11
-156.6075429803
 21
-165.757252133603
 31
0.0
  0
LINE
  5
97
330
47
100
AcDbEntity
  8
0
  6
Continuous
 62
     7
100
AcDbLine
 10
-157.1497270224747
 20
-165.4275320014961
 30
0.0
 11
-163.2564783371219
 21
-163.6646647438033
 31
0.0
  0
LINE
  5
98
330
47
100
AcDbEntity
  8
0
  6
Continuous
 62
     7
100
AcDbLine
 10
-162.9310827017193
 20
-164.6526155333074
 30
0.0
 11
-162.9310827017193
 21
-166.5298796647599
 31
0.0
  0
LINE
  5
99
330
47
100
AcDbEntity
  8
0
  6
Continuous
 62
     7
100
AcDbLine
 10
-159.0734564361684
 20
-169.3177962268343
 30
0.0
 11
-160.3075429803
 21
-168.9615461276054
 31
0.0
  0
LINE
  5
9A
330
47
100
AcDbEntity
  8
0
  6
Continuous
 62
     7
100
AcDbLine
 10
-162.9310827017193
 20
-166.5298796647599
 30
0.0
 11
-159.5497270224747
 21
-167.5059929705788
 31
0.0
  0
LINE
  5
9B
330
47
100
AcDbEntity
  8
0
  6
Continuous
 62
     7
100
AcDbLine
 10
-156.4984564361684
 20
-167.0877808120893
 30
0.0
 11
-156.6075429803
 21
-167.0562902392796
 31
0.0
  0
LINE
  5
9C
330
47
100
AcDbEntity
  8
0
  6
Continuous
 62
     7
100
AcDbLine
 10
-160.6252515272809
 20
-190.5204666646546
 30
0.0
 11
-161.9242896329575
 21
-190.1454666646546
 31
0.0
  0
LINE
  5
9D
330
47
100
AcDbEntity
  8
0
  6
Continuous
 62
     7
100
AcDbLine
 10
-159.1825429803001
 20
-169.2863056540246
 30
0.0
 11
-156.6075429803
 21
-167.0562902392796
 31
0.0
  0
LINE
  5
9E
330
47
100
AcDbEntity
  8
0
  6
Continuous
 62
     7
100
AcDbLine
 10
-157.1497270224747
 20
-165.4275320014961
 30
0.0
 11
-161.1497270224747
 21
-168.8916336166339
 31
0.0
  0
LINE
  5
9F
330
47
100
AcDbEntity
  8
0
  6
Continuous
 62
     7
100
AcDbLine
 10
-140.6938450667299
 20
-169.6005856707575
 30
0.0
 11
-163.8167233477741
 21
-162.9255856707576
 31
0.0
  0
LINE
  5
A0
330
47
100
AcDbEntity
  8
0
  6
Continuous
 62
     7
100
AcDbLine
 10
-141.8928831724065
 20
-188.7977597962859
 30
0.0
 11
-142.204485712785
 21
-188.707807891002
 31
0.0
  0
LINE
  5
A1
330
47
100
AcDbEntity
  8
0
  6
Continuous
 62
     7
100
AcDbLine
 10
-140.9178831724065
 20
-187.9533850275961
 30
0.0
 11
-142.204485712785
 21
-187.5819748660823
 31
0.0
  0
LINE
  5
A2
330
47
100
AcDbEntity
  8
0
  6
Continuous
 62
     7
100
AcDbLine
 10
-142.204485712785
 20
-190.9594739408416
 30
0.0
 11
-142.204485712785
 21
-176.5380039708294
 31
0.0
  0
LINE
  5
A3
330
47
100
AcDbEntity
  8
0
  6
Continuous
 62
     7
100
AcDbLine
 10
-144.579485712785
 20
-191.9140429388774
 30
0.0
 11
-142.204485712785
 21
-190.9594739408416
 31
0.0
  0
LINE
  5
A4
330
47
100
AcDbEntity
  8
0
  6
Continuous
 62
     7
100
AcDbLine
 10
-141.8928831724065
 20
-207.1574983565159
 30
0.0
 11
-140.9178831724066
 21
-206.3131235878261
 31
0.0
  0
LINE
  5
A5
330
47
100
AcDbEntity
  8
0
  6
Continuous
 62
     7
100
AcDbLine
 10
-140.9178831724066
 20
-206.3131235878261
 30
0.0
 11
-140.9178831724065
 21
-187.9533850275961
 31
0.0
  0
LINE
  5
A6
330
47
100
AcDbEntity
  8
0
  6
Continuous
 62
     7
100
AcDbLine
 10
-141.8928831724065
 20
-188.7977597962859
 30
0.0
 11
-141.8928831724065
 21
-207.1574983565159
 31
0.0
  0
LINE
  5
A7
330
47
100
AcDbEntity
  8
0
  6
Continuous
 62
     7
100
AcDbLine
 10
-141.8928831724065
 20
-207.1574983565159
 30
0.0
 11
-147.0928831724065
 21
-205.6563876566229
 31
0.0
  0
LINE
  5
A8
330
47
100
AcDbEntity
  8
0
  6
Continuous
 62
     7
100
AcDbLine
 10
-140.6938450667299
 20
-169.6005856707575
 30
0.0
 11
-140.6938450667299
 21
-175.2297507953564
 31
0.0
  0
LINE
  5
A9
330
47
100
AcDbEntity
  8
0
  6
Continuous
 62
     7
100
AcDbLine
 10
-142.5346299969335
 20
-169.8197521832174
 30
0.0
 11
-146.2346299969335
 21
-173.0240461772198
 31
0.0
  0
LINE
  5
AA
330
47
100
AcDbEntity
  8
0
  6
Continuous
 62
     7
100
AcDbLine
 10
-143.7687161973263
 20
-169.4635021832174
 30
0.0
 11
-142.5346299969335
 21
-169.8197521832174
 31
0.0
  0
LINE
  5
AB
330
47
100
AcDbEntity
  8
0
  6
Continuous
 62
     7
100
AcDbLine
 10
-144.3610555731922
 20
-198.4775646416991
 30
0.0
 11
-147.0928831724066
 21
-197.6889539418061
 31
0.0
  0
LINE
  5
AC
330
47
100
AcDbEntity
  8
0
  6
Continuous
 62
     7
100
AcDbLine
 10
-146.954485712785
 20
-195.0730946088176
 30
0.0
 11
-144.579485712785
 21
-191.9140429388774
 31
0.0
  0
LINE
  5
AD
330
47
100
AcDbEntity
  8
0
  6
Continuous
 62
     7
100
AcDbLine
 10
-144.3610555731922
 20
-200.209615449268
 30
0.0
 11
-145.1181063807611
 21
-199.9910737054979
 31
0.0
  0
LINE
  5
AE
330
47
100
AcDbEntity
  8
0
  6
Continuous
 62
     7
100
AcDbLine
 10
-147.0928831724065
 20
-203.144913985648
 30
0.0
 11
-146.0931063807611
 21
-203.433524685541
 31
0.0
  0
LINE
  5
AF
330
47
100
AcDbEntity
  8
0
  6
Continuous
 62
     7
100
AcDbLine
 10
-146.0931063807611
 20
-202.3076916606213
 30
0.0
 11
-147.0928831724066
 21
-202.0190809607283
 31
0.0
  0
LINE
  5
B0
330
47
100
AcDbEntity
  8
0
  6
Continuous
 62
     7
100
AcDbLine
 10
-146.0931063807611
 20
-200.8354484741877
 30
0.0
 11
-144.3610555731922
 21
-201.3354484741877
 31
0.0
  0
LINE
  5
B1
330
47
100
AcDbEntity
  8
0
  6
Continuous
 62
     7
100
AcDbLine
 10
-144.3610555731922
 20
-201.3354484741877
 30
0.0
 11
-144.3610555731922
 21
-198.4775646416991
 31
0.0
  0
LINE
  5
B2
330
47
100
AcDbEntity
  8
0
  6
Continuous
 62
     7
100
AcDbLine
 10
-146.0931063807611
 20
-203.433524685541
 30
0.0
 11
-146.0931063807611
 21
-200.8354484741877
 31
0.0
  0
LINE
  5
B3
330
47
100
AcDbEntity
  8
0
  6
Continuous
 62
     7
100
AcDbLine
 10
-145.1181063807611
 20
-199.9910737054979
 30
0.0
 11
-146.0931063807611
 21
-200.8354484741877
 31
0.0
  0
LINE
  5
B4
330
47
100
AcDbEntity
  8
0
  6
Continuous
 62
     7
100
AcDbLine
 10
-145.6938450667299
 20
-173.9307126896797
 30
0.0
 11
-145.6938450667299
 21
-179.5598778142786
 31
0.0
  0
LINE
  5
B5
330
47
100
AcDbEntity
  8
0
  6
Continuous
 62
     7
100
AcDbLine
 10
-146.2346299969335
 20
-173.0240461772198
 30
0.0
 11
-147.4687161973263
 21
-172.6677961772198
 31
0.0
  0
LINE
  5
B6
330
47
100
AcDbEntity
  8
0
  6
Continuous
 62
     7
100
AcDbLine
 10
-147.8205111165694
 20
-192.8312361801134
 30
0.0
 11
-147.8205111165694
 21
-178.9459622061029
 31
0.0
  0
LINE
  5
B7
330
47
100
AcDbEntity
  8
0
  6
Continuous
 62
     7
100
AcDbLine
 10
-146.954485712785
 20
-195.0730946088176
 30
0.0
 11
-146.954485712785
 21
-179.1959622061029
 31
0.0
  0
LINE
  5
B8
330
47
100
AcDbEntity
  8
0
  6
Continuous
 62
     7
100
AcDbLine
 10
-148.0678831724065
 20
-194.1454666646546
 30
0.0
 11
-148.0678831724065
 21
-212.5052052248848
 31
0.0
  0
LINE
  5
B9
330
47
100
AcDbEntity
  8
0
  6
Continuous
 62
     7
100
AcDbLine
 10
-147.0928831724065
 20
-211.660830456195
 30
0.0
 11
-147.0928831724066
 21
-193.3010918959649
 31
0.0
  0
LINE
  5
BA
330
47
100
AcDbEntity
  8
0
  6
Continuous
 62
     7
100
AcDbLine
 10
-147.0928831724065
 20
-211.660830456195
 30
0.0
 11
-148.0678831724065
 21
-212.5052052248848
 31
0.0
  0
LINE
  5
BB
330
47
100
AcDbEntity
  8
0
  6
Continuous
 62
     7
100
AcDbLine
 10
-147.4687161973263
 20
-172.6677961772198
 30
0.0
 11
-143.7687161973263
 21
-169.4635021832174
 31
0.0
  0
LINE
  5
BC
330
47
100
AcDbEntity
  8
0
  6
Continuous
 62
     7
100
AcDbLine
 10
-145.6938450667299
 20
-173.9307126896797
 30
0.0
 11
-140.6938450667299
 21
-169.6005856707575
 31
0.0
  0
LINE
  5
BD
330
47
100
AcDbEntity
  8
0
  6
Continuous
 62
     7
100
AcDbLine
 10
-145.6938450667299
 20
-179.5598778142786
 30
0.0
 11
-140.6938450667299
 21
-175.2297507953564
 31
0.0
  0
LINE
  5
BE
330
47
100
AcDbEntity
  8
0
  6
Continuous
 62
     7
100
AcDbLine
 10
-155.7492896329576
 20
-203.1574983565159
 30
0.0
 11
-155.7492896329576
 21
-202.3203404661909
 31
0.0
  0
LINE
  5
BF
330
47
100
AcDbEntity
  8
0
  6
Continuous
 62
     7
100
AcDbLine
 10
-157.724066424603
 20
-204.6081553425565
 30
0.0
 11
-157.7240664246031
 21
-207.2062315539099
 31
0.0
  0
LINE
  5
C0
330
47
100
AcDbEntity
  8
0
  6
Continuous
 62
     7
100
AcDbLine
 10
-152.2681063807611
 20
-206.1831553425566
 30
0.0
 11
-150.5360555731922
 21
-206.6831553425566
 31
0.0
  0
LINE
  5
C1
330
47
100
AcDbEntity
  8
0
  6
Continuous
 62
     7
100
AcDbLine
 10
-157.7240664246031
 20
-207.2062315539099
 30
0.0
 11
-156.749066424603
 21
-206.3618567852201
 31
0.0
  0
LINE
  5
C2
330
47
100
AcDbEntity
  8
0
  6
Continuous
 62
     7
100
AcDbLine
 10
-150.5360555731922
 20
-204.6624294003929
 30
0.0
 11
-155.7492896329576
 21
-203.1574983565159
 31
0.0
  0
LINE
  5
C3
330
47
100
AcDbEntity
  8
0
  6
Continuous
 62
     7
100
AcDbLine
 10
-148.4911580519576
 20
-170.3479265511541
 30
0.0
 11
-153.0012014147422
 21
-170.9521577895979
 31
0.0
  0
LINE
  5
C4
330
47
100
AcDbEntity
  8
0
  6
Continuous
 62
     7
100
AcDbLine
 10
-148.245684054342
 20
-169.6938735631961
 30
0.0
 11
-148.245684054342
 21
-170.1266552817824
 31
0.0
  0
LINE
  5
C5
330
47
100
AcDbEntity
  8
0
  6
Continuous
 62
     7
100
AcDbLine
 10
-154.1520314809777
 20
-170.4851740747885
 30
0.0
 11
-148.245684054342
 21
-169.6938735631961
 31
0.0
  0
LINE
  5
C6
330
47
100
AcDbEntity
  8
0
  6
Continuous
 62
     7
100
AcDbLine
 10
-149.3669212780831
 20
-193.7704666646546
 30
0.0
 11
-149.3669212780831
 21
-191.6054031551936
 31
0.0
  0
LINE
  5
C7
330
47
100
AcDbEntity
  8
0
  6
Continuous
 62
     7
100
AcDbLine
 10
-152.2681063807611
 20
-207.6553985289901
 30
0.0
 11
-156.749066424603
 21
-206.3618567852201
 31
0.0
  0
LINE
  5
C8
330
47
100
AcDbEntity
  8
0
  6
Continuous
 62
     7
100
AcDbLine
 10
-152.2681063807611
 20
-208.7812315539099
 30
0.0
 11
-152.2681063807611
 21
-206.1831553425566
 31
0.0
  0
LINE
  5
C9
330
47
100
AcDbEntity
  8
0
  6
Continuous
 62
     7
100
AcDbLine
 10
-157.7240664246031
 20
-207.2062315539099
 30
0.0
 11
-152.2681063807611
 21
-208.7812315539099
 31
0.0
  0
LINE
  5
CA
330
47
100
AcDbEntity
  8
0
  6
Continuous
 62
     7
100
AcDbLine
 10
-148.0678831724065
 20
-212.5052052248848
 30
0.0
 11
-161.9242896329576
 21
-208.5052052248848
 31
0.0
  0
LINE
  5
CB
330
47
100
AcDbEntity
  8
0
  6
Continuous
 62
     7
100
AcDbLine
 10
-168.6149806058727
 20
-172.9431159274506
 30
0.0
 11
-169.2465084386491
 21
-167.6174280962825
 31
0.0
  0
LINE
  5
CC
330
47
100
AcDbEntity
  8
0
  6
Continuous
 62
     7
100
AcDbLine
 10
-161.1497270224747
 20
-168.8916336166339
 30
0.0
 11
-167.2564783371219
 21
-167.1287663589411
 31
0.0
  0
LINE
  5
CD
330
47
100
AcDbEntity
  8
0
  6
Continuous
 62
     7
100
AcDbLine
 10
-163.3130219051109
 20
-166.4196233138138
 30
0.0
 11
-164.9130219051109
 21
-167.8052639598689
 31
0.0
  0
LINE
  5
CE
330
47
100
AcDbEntity
  8
0
  6
Continuous
 62
     7
100
AcDbLine
 10
-164.5310827017188
 20
-167.9155203108152
 30
0.0
 11
-163.6810827017193
 21
-167.1793987175989
 31
0.0
  0
LINE
  5
CF
330
47
100
AcDbEntity
  8
0
  6
Continuous
 62
     7
100
AcDbLine
 10
-163.6810827017193
 20
-167.1793987175989
 30
0.0
 11
-163.7669524275634
 21
-168.136105720555
 31
0.0
  0
LINE
  5
D0
330
47
100
AcDbEntity
  8
0
  6
Continuous
 62
     7
100
AcDbLine
 10
-163.6810827017193
 20
-167.1793987175989
 30
0.0
 11
-162.7717560277456
 21
-167.4418987175983
 31
0.0
  0
LINE
  5
D1
330
47
100
AcDbEntity
  8
0
  6
Continuous
 62
     7
100
AcDbLine
 10
-161.9242896329576
 20
-208.5052052248848
 30
0.0
 11
-161.9242896329575
 21
-190.1454666646546
 31
0.0
  0
LINE
  5
D2
330
47
100
AcDbEntity
  8
0
  6
Continuous
 62
     7
100
AcDbLine
 10
-160.6376870925791
 20
-189.3910438012487
 30
0.0
 11
-160.6376870925791
 21
-175.2459622061029
 31
0.0
  0
LINE
  5
D3
330
47
100
AcDbEntity
  8
0
  6
Continuous
 62
     7
100
AcDbLine
 10
-163.6810827017193
 20
-167.1793987175989
 30
0.0
 11
-162.9310827017193
 21
-166.5298796647599
 31
0.0
  0
LINE
  5
D4
330
47
100
AcDbEntity
  8
0
  6
Continuous
 62
     7
100
AcDbLine
 10
-163.6217560277456
 20
-168.178020310815
 30
0.0
 11
-162.7717560277456
 21
-167.4418987175983
 31
0.0
  0
LINE
  5
D5
330
47
100
AcDbEntity
  8
0
  6
Continuous
 62
     7
100
AcDbLine
 10
-167.2564783371219
 20
-167.1287663589411
 30
0.0
 11
-163.2564783371219
 21
-163.6646647438033
 31
0.0
  0
LINE
  5
D6
330
47
100
AcDbEntity
  8
0
  6
Continuous
 62
     2
100
AcDbLine
 10
-163.8167233477741
 20
-162.9255856707576
 30
0.0
 11
-168.8167233477742
 21
-167.2557126896798
 31
0.0
  0
LINE
  5
D7
330
47
100
AcDbEntity
  8
0
  6
Continuous
 62
     7
100
AcDbLine
 10
-164.1440501831281
 20
-162.9806338996406
 30
0.0
 11
-169.1440501831281
 21
-167.3107609185628
 31
0.0
  0
LINE
  5
D8
330
47
100
AcDbEntity
  8
0
  6
Continuous
 62
     7
100
AcDbLine
 10
-146.954485712785
 20
-195.0730946088176
 30
0.0
 11
-147.0928831724066
 21
-195.0331427035338
 31
0.0
  0
LINE
  5
D9
330
47
100
AcDbEntity
  8
0
  6
Continuous
 62
     7
100
AcDbLine
 10
-147.0928831724066
 20
-193.3010918959649
 30
0.0
 11
-148.0678831724065
 21
-194.1454666646546
 31
0.0
  0
LINE
  5
DA
330
47
100
AcDbEntity
  8
0
  6
Continuous
 62
     7
100
AcDbLine
 10
-148.3919212780832
 20
-192.9260918959649
 30
0.0
 11
-147.0928831724066
 21
-193.3010918959649
 31
0.0
  0
LINE
  5
DB
330
47
100
AcDbEntity
  8
0
  6
Continuous
 62
     7
100
AcDbLine
 10
-147.8205111165694
 20
-192.8312361801134
 30
0.0
 11
-148.1669212780832
 21
-192.7312361801134
 31
0.0
  0
LINE
  5
DC
330
47
100
AcDbEntity
  8
0
  6
Continuous
 62
     7
100
AcDbLine
 10
-147.8205111165694
 20
-192.4312361801134
 30
0.0
 11
-148.1669212780832
 21
-192.7312361801134
 31
0.0
  0
LINE
  5
DD
330
47
100
AcDbEntity
  8
0
  6
Continuous
 62
     7
100
AcDbLine
 10
-148.3919212780832
 20
-192.9260918959649
 30
0.0
 11
-149.3669212780831
 21
-193.7704666646546
 31
0.0
  0
LINE
  5
DE
330
47
100
AcDbEntity
  8
0
  6
Continuous
 62
     7
100
AcDbLine
 10
-148.3919212780832
 20
-192.9260918959649
 30
0.0
 11
-148.1669212780832
 21
-192.7312361801134
 31
0.0
  0
LINE
  5
DF
330
47
100
AcDbEntity
  8
0
  6
Continuous
 62
     7
100
AcDbLine
 10
-148.0678831724065
 20
-194.1454666646546
 30
0.0
 11
-149.3669212780831
 21
-193.7704666646546
 31
0.0
  0
LINE
  5
E0
330
47
100
AcDbEntity
  8
0
  6
Continuous
 62
     7
100
AcDbLine
 10
-155.1710864026821
 20
-186.8843623366643
 30
0.0
 11
-155.1710864026821
 21
-185.5853242309876
 31
0.0
  0
LINE
  5
E1
330
47
100
AcDbEntity
  8
0
  6
Continuous
 62
     7
100
AcDbLine
 10
-160.6252515272808
 20
-188.3554031551936
 30
0.0
 11
-154.4210864026821
 21
-182.9824385480176
 31
0.0
  0
LINE
  5
E2
330
47
100
AcDbEntity
  8
0
  6
Continuous
 62
     7
100
AcDbLine
 10
-147.8205111165694
 20
-190.2661726706523
 30
0.0
 11
-149.3669212780831
 21
-191.6054031551936
 31
0.0
  0
LINE
  5
E3
330
47
100
AcDbEntity
  8
0
  6
Continuous
 62
     7
100
AcDbLine
 10
-160.9492896329576
 20
-189.3010918959649
 30
0.0
 11
-160.6252515272809
 21
-189.394633639735
 31
0.0
  0
LINE
  5
E4
330
47
100
AcDbEntity
  8
0
  6
Continuous
 62
     7
100
AcDbLine
 10
-160.9492896329576
 20
-189.3010918959649
 30
0.0
 11
-161.9242896329575
 21
-190.1454666646546
 31
0.0
  0
LINE
  5
E5
330
47
100
AcDbEntity
  8
0
  6
Continuous
 62
     7
100
AcDbLine
 10
-154.4210864026821
 20
-185.5853242309876
 30
0.0
 11
-154.4210864026821
 21
-177.0405402469811
 31
0.0
  0
LINE
  5
E6
330
47
100
AcDbEntity
  8
0
  6
Continuous
 62
     7
100
AcDbLine
 10
-148.4210864026821
 20
-185.5853242309876
 30
0.0
 11
-148.4210864026821
 21
-178.77259105455
 31
0.0
  0
LINE
  5
E7
330
47
100
AcDbEntity
  8
0
  6
Continuous
 62
     7
100
AcDbLine
 10
-155.0216616887947
 20
-176.8671690954283
 30
0.0
 11
-155.0216616887947
 21
-183.5025520026762
 31
0.0
  0
LINE
  5
E8
330
47
100
AcDbEntity
  8
0
  6
Continuous
 62
     7
100
AcDbLine
 10
-147.8205111165694
 20
-183.7957044672958
 30
0.0
 11
-148.4210864026821
 21
-183.6223333157429
 31
0.0
  0
LINE
  5
E9
330
47
100
AcDbEntity
  8
0
  6
Continuous
 62
     7
100
AcDbLine
 10
-160.6252515272808
 20
-188.3554031551936
 30
0.0
 11
-149.3669212780831
 21
-191.6054031551936
 31
0.0
  0
LINE
  5
EA
330
47
100
AcDbEntity
  8
0
  6
Continuous
 62
     7
100
AcDbLine
 10
-145.6938450667299
 20
-179.5598778142786
 30
0.0
 11
-168.6149806058727
 21
-172.9431159274506
 31
0.0
  0
LINE
  5
EB
330
47
100
AcDbEntity
  8
0
  6
Continuous
 62
     7
100
AcDbLine
 10
-156.749066424603
 20
-206.3618567852201
 30
0.0
 11
-156.749066424603
 21
-203.7637805738667
 31
0.0
  0
LINE
  5
EC
330
47
100
AcDbEntity
  8
0
  6
Continuous
 62
     7
100
AcDbLine
 10
-158.4811172321719
 20
-203.2637805738667
 30
0.0
 11
-158.4811172321719
 21
-201.5317297662978
 31
0.0
  0
LINE
  5
ED
330
47
100
AcDbEntity
  8
0
  6
Continuous
 62
     7
100
AcDbLine
 10
-156.749066424603
 20
-203.7637805738667
 30
0.0
 11
-158.4811172321719
 21
-203.2637805738667
 31
0.0
  0
LINE
  5
EE
330
47
100
AcDbEntity
  8
0
  6
Continuous
 62
     7
100
AcDbLine
 10
-156.749066424603
 20
-203.7637805738667
 30
0.0
 11
-157.724066424603
 21
-204.6081553425565
 31
0.0
  0
LINE
  5
EF
330
47
100
AcDbEntity
  8
0
  6
Continuous
 62
     7
100
AcDbLine
 10
-151.2931063807611
 20
-205.3387805738667
 30
0.0
 11
-152.2681063807611
 21
-206.1831553425566
 31
0.0
  0
LINE
  5
F0
330
47
100
AcDbEntity
  8
0
  6
Continuous
 62
     7
100
AcDbLine
 10
-150.5360555731922
 20
-205.5573223176368
 30
0.0
 11
-151.2931063807611
 21
-205.3387805738667
 31
0.0
  0
LINE
  5
F1
330
47
100
AcDbEntity
  8
0
  6
Continuous
 62
     7
100
AcDbLine
 10
-150.5360555731922
 20
-206.6831553425566
 30
0.0
 11
-150.5360555731922
 21
-203.8252715100679
 31
0.0
  0
LINE
  5
F2
330
47
100
AcDbEntity
  8
0
  6
Continuous
 62
     7
100
AcDbLine
 10
-159.4561172321719
 20
-204.1081553425565
 30
0.0
 11
-157.724066424603
 21
-204.6081553425565
 31
0.0
  0
LINE
  5
F3
330
47
100
AcDbEntity
  8
0
  6
Continuous
 62
     7
100
AcDbLine
 10
-150.5360555731922
 20
-203.8252715100679
 30
0.0
 11
-159.4561172321719
 21
-201.2502715100679
 31
0.0
  0
SPLINE
  5
F4
330
47
100
AcDbEntity
  8
0
  6
Continuous
 62
     7
100
AcDbSpline
210
0.0
220
0.0
230
1.0
 70
     8
 71
     3
 72
    11
 73
     7
 74
     5
 42
0.000000001
 43
0.0000000001
 44
0.00000001
 40
0.0
 40
0.0
 40
0.0
 40
0.0
 40
0.093570595210966
 40
0.181518136397621
 40
0.2647690944696514
 40
0.3453217744506568
 40
0.3453217744506568
 40
0.3453217744506568
 40
0.3453217744506568
 10
-163.8167233477741
 20
-162.9255856707576
 30
0.0
 10
-163.8472536550304
 20
-162.9185452704411
 30
0.0
 10
-163.906479576178
 20
-162.904887571721
 30
0.0
 10
-163.9955118517845
 20
-162.9093610607954
 30
0.0
 10
-164.0777490873012
 20
-162.9323256752588
 30
0.0
 10
-164.1221938613052
 20
-162.9647089668277
 30
0.0
 10
-164.1440501831281
 20
-162.9806338996406
 30
0.0
 11
-163.8167233477741
 21
-162.9255856707576
 31
0.0
 11
-163.9087957889162
 21
-162.9089086824769
 31
0.0
 11
-163.9966572755674
 21
-162.9127983566721
 31
0.0
 11
-164.0762893858823
 21
-162.9370769377691
 31
0.0
 11
-164.1440501831281
 21
-162.9806338996406
 31
0.0
  0
SPLINE
  5
F5
330
47
100
AcDbEntity
  8
0
  6
Continuous
 62
     7
100
AcDbSpline
210
0.0
220
0.0
230
1.0
 70
     8
 71
     3
 72
    19
 73
    15
 74
    13
 42
0.000000001
 43
0.0000000001
 44
0.00000001
 40
0.0
 40
0.0
 40
0.0
 40
0.0
 40
0.5454169980766553
 40
1.171031282566295
 40
1.863837777582378
 40
2.603189792951078
 40
3.364034491814221
 40
4.119460388959315
 40
4.843015365364791
 40
5.511078596024259
 40
6.105610120822961
 40
6.617867588217841
 40
7.053975868307687
 40
7.44172480753599
 40
7.44172480753599
 40
7.44172480753599
 40
7.44172480753599
 10
-154.4521753159276
 20
-168.5156491802186
 30
0.0
 10
-154.3055472281954
 20
-168.4071648391035
 30
0.0
 10
-153.9907310746977
 20
-168.1742447950039
 30
0.0
 10
-153.4109061302796
 20
-167.9368398100404
 30
0.0
 10
-152.748532399349
 20
-167.7560738088221
 30
0.0
 10
-152.0227597968785
 20
-167.6530573653324
 30
0.0
 10
-151.2699630694511
 20
-167.6286171697413
 30
0.0
 10
-150.5239871097349
 20
-167.685054251934
 30
0.0
 10
-149.8191910615672
 20
-167.8194017371736
 30
0.0
 10
-149.1882823204049
 20
-168.0255464570931
 30
0.0
 10
-148.6566531395425
 20
-168.2945803146729
 30
0.0
 10
-148.2541224888352
 20
-168.6166968097303
 30
0.0
 10
-147.9767818284288
 20
-168.9848431130041
 30
0.0
 10
-147.9389105435062
 20
-169.2607795254196
 30
0.0
 10
-147.9210864026821
 20
-169.3906491802186
 30
0.0
 11
-154.4521753159276
 21
-168.5156491802186
 31
0.0
 11
-154.0015568511845
 21
-168.2083664224218
 31
0.0
 11
-153.4286039299108
 21
-167.9571331027129
 31
0.0
 11
-152.7604782964057
 21
-167.7738601426386
 31
0.0
 11
-152.0288550245164
 21
-167.6672356124473
 31
0.0
 11
-151.2684185605306
 21
-167.6423149485069
 31
0.0
 11
-150.5152197448232
 21
-167.7002789842127
 31
0.0
 11
-149.8049664006145
 21
-167.8383803607124
 31
0.0
 11
-149.1713297687791
 21
-168.0500714047604
 31
0.0
 11
-148.6443499595144
 21
-168.3253167745451
 31
0.0
 11
-148.2490091480537
 21
-168.6510672221724
 31
0.0
 11
-148.0040506827672
 21
-169.0118798896359
 31
0.0
 11
-147.9210864026821
 21
-169.3906491802186
 31
0.0
  0
SPLINE
  5
F6
330
47
100
AcDbEntity
  8
0
  6
Continuous
 62
     7
100
AcDbSpline
210
0.0
220
0.0
230
1.0
 70
     8
 71
     3
 72
    17
 73
    13
 74
    11
 42
0.000000001
 43
0.0000000001
 44
0.00000001
 40
0.0
 40
0.0
 40
0.0
 40
0.0
 40
0.5684326780368804
 40
1.236387971841933
 40
1.990086599741109
 40
2.80317891103104
 40
3.642346681413779
 40
4.471518352038242
 40
5.255658590194431
 40
5.964711125568471
 40
6.578411332500251
 40
7.093331512045378
 40
7.093331512045378
 40
7.093331512045378
 40
7.093331512045378
 10
-148.245684054342
 20
-169.6938735631961
 30
0.0
 10
-148.3881319614112
 20
-169.5675578095665
 30
0.0
 10
-148.6979679231633
 20
-169.2928106402963
 30
0.0
 10
-149.3100847481973
 20
-169.0167052830545
 30
0.0
 10
-150.0252727482867
 20
-168.8062511443721
 30
0.0
 10
-150.8215638692436
 20
-168.6892601692612
 30
0.0
 10
-151.6502073375009
 20
-168.6669998722986
 30
0.0
 10
-152.4659219967697
 20
-168.742698929373
 30
0.0
 10
-153.2252037389225
 20
-168.910103895142
 30
0.0
 10
-153.8798354677975
 20
-169.1652080777428
 30
0.0
 10
-154.4180439310384
 20
-169.4798702851111
 30
0.0
 10
-154.6550912617097
 20
-169.7754222171676
 30
0.0
 10
-154.7632413960957
 20
-169.9102644224893
 30
0.0
 11
-148.245684054342
 21
-169.6938735631961
 31
0.0
 11
-148.687920234126
 21
-169.3367421208391
 31
0.0
 11
-149.2876181549533
 21
-169.0425879474261
 31
0.0
 11
-150.0102296648693
 21
-168.8283585651468
 31
0.0
 11
-150.8141227158983
 21
-168.7063951795581
 31
0.0
 11
-151.6529842204154
 21
-168.6837253569462
 31
0.0
 11
-152.4784857490393
 21
-168.7616540638352
 31
0.0
 11
-153.2430682792674
 21
-168.935692753255
 31
0.0
 11
-153.9026837417273
 21
-169.1958137582093
 31
0.0
 11
-154.4193291665785
 21
-169.5270318933446
 31
0.0
 11
-154.7632413960957
 21
-169.9102644224893
 31
0.0
  0
SPLINE
  5
F7
330
47
100
AcDbEntity
  8
0
  6
Continuous
 62
     7
100
AcDbSpline
210
0.0
220
0.0
230
1.0
 70
     8
 71
     3
 72
    11
 73
     7
 74
     5
 42
0.000000001
 43
0.0000000001
 44
0.00000001
 40
0.0
 40
0.0
 40
0.0
 40
0.0
 40
0.2303750428901623
 40
0.4720014383040874
 40
0.7339990006824828
 40
1.022359370880261
 40
1.022359370880261
 40
1.022359370880261
 40
1.022359370880261
 10
-154.9210864026821
 20
-169.3906491802186
 30
0.0
 10
-154.9150982368751
 20
-169.3136400342096
 30
0.0
 10
-154.9028294328392
 20
-169.1558606726072
 30
0.0
 10
-154.8055570552101
 20
-168.9275169067491
 30
0.0
 10
-154.6566723063548
 20
-168.707515601992
 30
0.0
 10
-154.5224835835522
 20
-168.5816149154989
 30
0.0
 10
-154.4521753159276
 20
-168.5156491802186
 30
0.0
 11
-154.9210864026821
 21
-169.3906491802186
 31
0.0
 11
-154.8911434030452
 21
-169.1622283447844
 31
0.0
 11
-154.8018267946938
 21
-168.9377158512892
 31
0.0
 11
-154.6546647530108
 21
-168.7209531763675
 31
0.0
 11
-154.4521753159276
 21
-168.5156491802186
 31
0.0
  0
SPLINE
  5
F8
330
47
100
AcDbEntity
  8
0
  6
Continuous
 62
     7
100
AcDbSpline
210
0.0
220
0.0
230
1.0
 70
     8
 71
     3
 72
    21
 73
    17
 74
    15
 42
0.000000001
 43
0.0000000001
 44
0.00000001
 40
0.0
 40
0.0
 40
0.0
 40
0.0
 40
0.3991765463467266
 40
0.8506424425764674
 40
1.383532183908371
 40
2.003141811389974
 40
2.698743368954684
 40
3.449749950554035
 40
4.229808147133784
 40
5.009866343713532
 40
5.760872925312911
 40
6.456474482877648
 40
7.076084110359213
 40
7.608973851691099
 40
8.060439747920856
 40
8.459616294267601
 40
8.459616294267601
 40
8.459616294267601
 40
8.459616294267601
 10
-147.9210864026821
 20
-169.3906491802186
 30
0.0
 10
-147.9400457205203
 20
-169.524351873969
 30
0.0
 10
-147.980447912375
 20
-169.8092713776344
 30
0.0
 10
-148.2741992680104
 20
-170.1862906367578
 30
0.0
 10
-148.698289471892
 20
-170.5137176530938
 30
0.0
 10
-149.2568032341414
 20
-170.7840331905675
 30
0.0
 10
-149.9168690885016
 20
-170.9867025338949
 30
0.0
 10
-150.6503184395984
 20
-171.1124198795417
 30
0.0
 10
-151.4210864026821
 20
-171.1550313887943
 30
0.0
 10
-152.1918543657658
 20
-171.1124198795417
 30
0.0
 10
-152.9253037168625
 20
-170.9867025338949
 30
0.0
 10
-153.5853695712228
 20
-170.7840331905676
 30
0.0
 10
-154.1438833334721
 20
-170.5137176530937
 30
0.0
 10
-154.5679735373537
 20
-170.1862906367579
 30
0.0
 10
-154.8617248929891
 20
-169.8092713776343
 30
0.0
 10
-154.9021270848438
 20
-169.524351873969
 30
0.0
 10
-154.9210864026821
 20
-169.3906491802186
 30
0.0
 11
-147.9210864026821
 21
-169.3906491802186
 31
0.0
 11
-148.0088390707248
 21
-169.7800607734808
 31
0.0
 11
-148.2676953650236
 21
-170.1499457236743
 31
0.0
 11
-148.6846765032861
 21
-170.4817562181399
 31
0.0
 11
-149.2388720961765
 21
-170.7588542745377
 31
0.0
 11
-149.9024934762879
 21
-170.967344532389
 31
0.0
 11
-150.6422631338349
 21
-171.0967730265368
 31
0.0
 11
-151.4210864026821
 21
-171.1406489952413
 31
0.0
 11
-152.1999096715292
 21
-171.0967730265368
 31
0.0
 11
-152.9396793290762
 21
-170.967344532389
 31
0.0
 11
-153.6033007091876
 21
-170.7588542745377
 31
0.0
 11
-154.157496302078
 21
-170.4817562181399
 31
0.0
 11
-154.5744774403405
 21
-170.1499457236743
 31
0.0
 11
-154.8333337346394
 21
-169.7800607734808
 31
0.0
 11
-154.9210864026821
 21
-169.3906491802186
 31
0.0
  0
SPLINE
  5
F9
330
47
100
AcDbEntity
  8
0
  6
Continuous
 62
     7
100
AcDbSpline
210
0.0
220
0.0
230
1.0
 70
     8
 71
     3
 72
    11
 73
     7
 74
     5
 42
0.000000001
 43
0.0000000001
 44
0.00000001
 40
0.0
 40
0.0
 40
0.0
 40
0.0
 40
0.0785530744420512
 40
0.1596167352638824
 40
0.2450789959481654
 40
0.3358640226838876
 40
0.3358640226838876
 40
0.3358640226838876
 40
0.3358640226838876
 10
-169.1440501831281
 20
-167.3107609185628
 30
0.0
 10
-169.162500366556
 20
-167.3295911698879
 30
0.0
 10
-169.1999903971036
 20
-167.3678535041452
 30
0.0
 10
-169.2343291845637
 20
-167.4434768275367
 30
0.0
 10
-169.2522555970382
 20
-167.5282110773639
 30
0.0
 10
-169.2484623491865
 20
-167.5870963011386
 30
0.0
 10
-169.2465084386491
 20
-167.6174280962825
 30
0.0
 11
-169.1440501831281
 21
-167.3107609185628
 31
0.0
 11
-169.1957373426228
 21
-167.3699134616116
 31
0.0
 11
-169.2309330522822
 21
-167.4429379751451
 31
0.0
 11
-169.2481057838833
 21
-167.5266571227374
 31
0.0
 11
-169.2465084386491
 21
-167.6174280962825
 31
0.0
  0
SPLINE
  5
FA
330
47
100
AcDbEntity
  8
0
  6
Continuous
 62
     7
100
AcDbSpline
210
0.0
220
0.0
230
1.0
 70
     8
 71
     3
 72
    11
 73
     7
 74
     5
 42
0.000000001
 43
0.0000000001
 44
0.00000001
 40
0.0
 40
0.0
 40
0.0
 40
0.0
 40
0.0935705952108541
 40
0.1815181363975091
 40
0.2647690944695479
 40
0.3453217744505533
 40
0.3453217744505533
 40
0.3453217744505533
 40
0.3453217744505533
 10
-168.8167233477742
 20
-167.2557126896798
 30
0.0
 10
-168.8472536550306
 20
-167.2486722893633
 30
0.0
 10
-168.906479576178
 20
-167.2350145906432
 30
0.0
 10
-168.9955118517846
 20
-167.2394880797177
 30
0.0
 10
-169.0777490873012
 20
-167.262452694181
 30
0.0
 10
-169.1221938613052
 20
-167.29483598575
 30
0.0
 10
-169.1440501831281
 20
-167.3107609185628
 30
0.0
 11
-168.8167233477742
 21
-167.2557126896798
 31
0.0
 11
-168.9087957889162
 21
-167.2390357013991
 31
0.0
 11
-168.9966572755674
 21
-167.2429253755943
 31
0.0
 11
-169.0762893858823
 21
-167.2672039566913
 31
0.0
 11
-169.1440501831281
 21
-167.3107609185628
 31
0.0
  0
SPLINE
  5
FB
330
47
100
AcDbEntity
  8
0
  6
Continuous
 62
     7
100
AcDbSpline
210
0.0
220
0.0
230
1.0
 70
     8
 71
     3
 72
     9
 73
     5
 74
     3
 42
0.000000001
 43
0.0000000001
 44
0.00000001
 40
0.0
 40
0.0
 40
0.0
 40
0.0
 40
0.2848229019167916
 40
0.5455011802819225
 40
0.5455011802819225
 40
0.5455011802819225
 40
0.5455011802819225
 10
-148.1734911384904
 20
-186.5228242309876
 30
0.0
 10
-148.1032618315213
 20
-186.458312474789
 30
0.0
 10
-147.9687566165373
 20
-186.3347576526926
 30
0.0
 10
-147.8684463215458
 20
-186.1822268270699
 30
0.0
 10
-147.8205111165695
 20
-186.1093370192465
 30
0.0
 11
-148.1734911384904
 21
-186.5228242309876
 31
0.0
 11
-147.9721254596608
 21
-186.3213895038081
 31
0.0
 11
-147.8205111165695
 21
-186.1093370192465
 31
0.0
  0
SPLINE
  5
FC
330
47
100
AcDbEntity
  8
0
  6
Continuous
 62
     7
100
AcDbSpline
210
0.0
220
0.0
230
1.0
 70
     8
 71
     3
 72
    19
 73
    15
 74
    13
 42
0.000000001
 43
0.0000000001
 44
0.00000001
 40
0.0
 40
0.0
 40
0.0
 40
0.0
 40
0.4548990735939141
 40
0.9758352076674279
 40
1.597050035693223
 40
2.321636796530056
 40
3.13265549513085
 40
4.001289498326991
 40
4.892243176538375
 40
5.767928695975589
 40
6.59231404586219
 40
7.33499826912914
 40
7.976278127646672
 40
8.514651549332019
 40
8.514651549332019
 40
8.514651549332019
 40
8.514651549332019
 10
-155.1710864026821
 20
-186.8843623366643
 30
0.0
 10
-155.1479201616221
 20
-187.0367288318314
 30
0.0
 10
-155.0982246564251
 20
-187.3635806473654
 30
0.0
 10
-154.74289318448
 20
-187.7878407626951
 30
0.0
 10
-154.2359543261927
 20
-188.1500964490643
 30
0.0
 10
-153.5725787593706
 20
-188.4409529452317
 30
0.0
 10
-152.7961154873697
 20
-188.6473743368707
 30
0.0
 10
-151.9441485790051
 20
-188.7584996092016
 30
0.0
 10
-151.0636981686806
 20
-188.7682868130947
 30
0.0
 10
-150.203246174843
 20
-188.6757392268194
 30
0.0
 10
-149.4072653573512
 20
-188.4875810093046
 30
0.0
 10
-148.7257314403217
 20
-188.2086748167689
 30
0.0
 10
-148.169012161927
 20
-187.8681154595092
 30
0.0
 10
-147.929719950765
 20
-187.5524427250154
 30
0.0
 10
-147.8205111165694
 20
-187.4083751249229
 30
0.0
 11
-155.1710864026821
 21
-186.8843623366643
 31
0.0
 11
-155.0652057598485
 21
-187.3267676536125
 31
0.0
 11
-154.7535450188832
 21
-187.744190745608
 31
0.0
 11
-154.2537014189848
 21
-188.1130596057818
 31
0.0
 11
-153.5939026313185
 21
-188.4125450512451
 31
0.0
 11
-152.811405614827
 21
-188.6257345136753
 31
0.0
 11
-151.9503985398362
 21
-188.7405902766989
 31
0.0
 11
-151.0595013798632
 21
-188.7506254490364
 31
0.0
 11
-150.1890225965091
 21
-188.6552744446977
 31
0.0
 11
-149.3881180573202
 21
-188.4599206070789
 31
0.0
 11
-148.7020133873464
 21
-188.1755964302035
 31
0.0
 11
-148.1694538900526
 21
-187.8183566821962
 31
0.0
 11
-147.8205111165694
 21
-187.4083751249229
 31
0.0
  0
SPLINE
  5
FD
330
47
100
AcDbEntity
  8
0
  6
Continuous
 62
     7
100
AcDbSpline
210
0.0
220
0.0
230
1.0
 70
     8
 71
     3
 72
    11
 73
     7
 74
     5
 42
0.000000001
 43
0.0000000001
 44
0.00000001
 40
0.0
 40
0.0
 40
0.0
 40
0.0
 40
0.4103609986723965
 40
0.7743999773193277
 40
1.100508345670082
 40
1.404728388656084
 40
1.404728388656084
 40
1.404728388656084
 40
1.404728388656084
 10
-154.4210864026821
 20
-184.4603242309876
 30
0.0
 10
-154.5321309136771
 20
-184.5410198002409
 30
0.0
 10
-154.7416850948588
 20
-184.6933019413095
 30
0.0
 10
-154.9814812498789
 20
-184.9740522069118
 30
0.0
 10
-155.1406832730529
 20
-185.2726136095253
 30
0.0
 10
-155.1611893909931
 20
-185.4835287178354
 30
0.0
 10
-155.1710864026821
 20
-185.5853242309876
 30
0.0
 11
-154.4210864026821
 21
-184.4603242309876
 31
0.0
 11
-154.7427587747064
 21
-184.71512421814
 31
0.0
 11
-154.9786487703714
 21
-184.992397169706
 31
0.0
 11
-155.1226643157185
 21
-185.2849825296584
 31
0.0
 11
-155.1710864026821
 21
-185.5853242309876
 31
0.0
  0
SPLINE
  5
FE
330
47
100
AcDbEntity
  8
0
  6
Continuous
 62
     7
100
AcDbSpline
210
0.0
220
0.0
230
1.0
 70
     8
 71
     3
 72
    19
 73
    15
 74
    13
 42
0.000000001
 43
0.0000000001
 44
0.00000001
 40
0.0
 40
0.0
 40
0.0
 40
0.0
 40
0.4014610051777953
 40
0.8712471558981214
 40
1.440286931547193
 40
2.105766040141467
 40
2.844663649928996
 40
3.622801020616976
 40
4.400938391304986
 40
5.139836001092482
 40
5.805315109686755
 40
6.374354885335826
 40
6.844141036056116
 40
7.245602041233897
 40
7.245602041233897
 40
7.245602041233897
 40
7.245602041233897
 10
-154.4210864026821
 20
-185.5853242309876
 30
0.0
 10
-154.3982270829363
 20
-185.7197456257997
 30
0.0
 10
-154.3486179692557
 20
-186.0114657515865
 30
0.0
 10
-154.0046515108785
 20
-186.3766525334593
 30
0.0
 10
-153.5238898234029
 20
-186.679124582481
 30
0.0
 10
-152.9018504021675
 20
-186.9087911139572
 30
0.0
 10
-152.186866496825
 20
-187.0528563772179
 30
0.0
 10
-151.4210864026821
 20
-187.1019780811895
 30
0.0
 10
-150.655306308539
 20
-187.0528563772179
 30
0.0
 10
-149.9403224031966
 20
-186.9087911139572
 30
0.0
 10
-149.3182829819612
 20
-186.679124582481
 30
0.0
 10
-148.8375212944856
 20
-186.3766525334593
 30
0.0
 10
-148.4935548361084
 20
-186.0114657515866
 30
0.0
 10
-148.4439457224279
 20
-185.7197456257997
 30
0.0
 10
-148.4210864026821
 20
-185.5853242309876
 30
0.0
 11
-154.4210864026821
 21
-185.5853242309876
 31
0.0
 11
-154.3188631089851
 21
-185.9735526951374
 31
0.0
 11
-154.0191626140353
 21
-186.3353242309877
 31
0.0
 11
-153.5424061806854
 21
-186.6459841199894
 31
0.0
 11
-152.9210864026821
 21
-186.8843623366643
 31
0.0
 11
-152.1975433309817
 21
-187.0342125841391
 31
0.0
 11
-151.4210864026821
 21
-187.0853242309876
 31
0.0
 11
-150.6446294743824
 21
-187.0342125841391
 31
0.0
 11
-149.9210864026821
 21
-186.8843623366643
 31
0.0
 11
-149.2997666246787
 21
-186.6459841199894
 31
0.0
 11
-148.8230101913288
 21
-186.3353242309877
 31
0.0
 11
-148.5233096963791
 21
-185.9735526951374
 31
0.0
 11
-148.4210864026821
 21
-185.5853242309876
 31
0.0
  0
SPLINE
  5
FF
330
47
100
AcDbEntity
  8
0
  6
Continuous
 62
     7
100
AcDbSpline
210
0.0
220
0.0
230
1.0
 70
     8
 71
     3
 72
    19
 73
    15
 74
    13
 42
0.000000001
 43
0.0000000001
 44
0.00000001
 40
0.0
 40
0.0
 40
0.0
 40
0.0
 40
0.4154452927106435
 40
0.882704164133552
 40
1.431551450518937
 40
2.068549512742008
 40
2.784331545547274
 40
3.559569020231434
 40
4.368953909998556
 40
5.184144658755224
 40
5.976307532353802
 40
6.718600205611351
 40
7.388901224591581
 40
7.97327657916403
 40
7.97327657916403
 40
7.97327657916403
 40
7.97327657916403
 10
-155.1710864026821
 20
-185.5853242309876
 30
0.0
 10
-155.1519891089107
 20
-185.7244702899286
 30
0.0
 10
-155.1114127328186
 20
-186.0201164465523
 30
0.0
 10
-154.8142620235686
 20
-186.4145589134745
 30
0.0
 10
-154.3829791840054
 20
-186.7596837297486
 30
0.0
 10
-153.8133764901028
 20
-187.0479342912531
 30
0.0
 10
-153.1374028389355
 20
-187.268803633987
 30
0.0
 10
-152.3822642159118
 20
-187.4127473681064
 30
0.0
 10
-151.5830042591019
 20
-187.473215670415
 30
0.0
 10
-150.7764363368924
 20
-187.4470297465058
 30
0.0
 10
-149.9988228342135
 20
-187.3366549856649
 30
0.0
 10
-149.2891366940967
 20
-187.1429771270232
 30
0.0
 10
-148.6678956818691
 20
-186.8886146442605
 30
0.0
 10
-148.3305926609236
 20
-186.6390574535095
 30
0.0
 10
-148.1734911384904
 20
-186.5228242309876
 30
0.0
 11
-155.1710864026821
 21
-185.5853242309876
 31
0.0
 11
-155.0821961025908
 21
-185.9911484708976
 31
0.0
 11
-154.8197406040695
 21
-186.3777334717514
 31
0.0
 11
-154.3961611632187
 21
-186.726751808495
 31
0.0
 11
-153.8315399390066
 21
-187.0216575618357
 31
0.0
 11
-153.1526435477545
 21
-187.2484693947443
 31
0.0
 11
-152.3916578218165
 21
-187.3964351552796
 31
0.0
 11
-151.5846590907015
 21
-187.4585394792502
 31
0.0
 11
-150.769905736431
 21
-187.4318387678855
 31
0.0
 11
-149.9860236594068
 21
-187.3175981998234
 31
0.0
 11
-149.2701747663656
 21
-187.1212343140295
 31
0.0
 11
-148.6562966364295
 21
-186.8520557571984
 31
0.0
 11
-148.1734911384904
 21
-186.5228242309876
 31
0.0
  0
SPLINE
  5
100
330
47
100
AcDbEntity
  8
0
  6
Continuous
 62
     7
100
AcDbSpline
210
0.0
220
0.0
230
1.0
 70
     8
 71
     3
 72
     9
 73
     5
 74
     3
 42
0.000000001
 43
0.0000000001
 44
0.00000001
 40
0.0
 40
0.0
 40
0.0
 40
0.0
 40
0.3989384556336799
 40
0.8550582709178782
 40
0.8550582709178782
 40
0.8550582709178782
 40
0.8550582709178782
 10
-147.8205111165695
 20
-185.0613114427288
 30
0.0
 10
-147.8975313583407
 20
-184.9517212812428
 30
0.0
 10
-148.0626114598467
 20
-184.7168329984114
 30
0.0
 10
-148.2963836391393
 20
-184.5495559884333
 30
0.0
 10
-148.4210864026821
 20
-184.4603242309876
 30
0.0
 11
-147.8205111165695
 21
-185.0613114427288
 31
0.0
 11
-148.0665248040025
 21
-184.7472586479977
 31
0.0
 11
-148.4210864026821
 21
-184.4603242309876
 31
0.0
  0
ENDBLK
  5
49
330
47
100
AcDbEntity
  8
0
100
AcDbBlockEnd
  0
BLOCK
  5
4C
330
4A
100
AcDbEntity
  8
0
100
AcDbBlockBegin
  2
Allg1
 70
     0
 10
-155.0000000000853
 20
-191.999999999762
 30
0.0
  3
Allg1
  1

  0
INSERT
  5
4B
330
4A
100
AcDbEntity
  8
0
100
AcDbBlockReference
  2
AKG_35_BU-select__1
 10
-169.2538871409321
 20
-212.5052052248848
 30
0.0
  0
MTEXT
  5
102
330
4A
100
AcDbEntity
  8
1
 62
     6
100
AcDbMText
 10
-172.000000000085
 20
-199.880205968231
 30
0.0
 40
5.0
 41
0.0
 71
     2
 72
     1
  1
  \P1:1
  7
CONVERTER_11
 73
     1
 44
1.32052821128451
  0
ENDBLK
  5
4D
330
4A
100
AcDbEntity
  8
0
100
AcDbBlockEnd
  0
BLOCK
  5
4F
330
4E
100
AcDbEntity
  8
0
100
AcDbBlockBegin
  2
AKG_35_BU-select__2
 70
     0
 10
-164.8499996187203
 20
-108.3999994282848
 30
0.0
  3
AKG_35_BU-select__2
  1

  0
LINE
  5
103
330
4E
100
AcDbEntity
  8
0
  6
Continuous
 62
     7
100
AcDbLine
 10
-162.7499996187206
 20
-97.24999942828492
 30
0.0
 11
-163.1257341341062
 21
-97.24999942828492
 31
0.0
  0
LINE
  5
104
330
4E
100
AcDbEntity
  8
0
  6
Continuous
 62
     7
100
AcDbLine
 10
-160.0999996187206
 20
-100.7499994282849
 30
0.0
 11
-160.0999996187206
 21
-101.7499994282849
 31
0.0
  0
LINE
  5
105
330
4E
100
AcDbEntity
  8
0
  6
Continuous
 62
     7
100
AcDbLine
 10
-161.6999996187205
 20
-103.7499994282849
 30
0.0
 11
-161.6999996187205
 21
-98.74999942828492
 31
0.0
  0
LINE
  5
106
330
4E
100
AcDbEntity
  8
0
  6
Continuous
 62
     7
100
AcDbLine
 10
-162.3249996187205
 20
-98.74999942828492
 30
0.0
 11
-162.3249996187205
 21
-103.7499994282849
 31
0.0
  0
LINE
  5
107
330
4E
100
AcDbEntity
  8
0
  6
Continuous
 62
     7
100
AcDbLine
 10
-163.1257341341062
 20
-105.2499994282849
 30
0.0
 11
-163.1257341341062
 21
-97.24999942828492
 31
0.0
  0
LINE
  5
108
330
4E
100
AcDbEntity
  8
0
  6
Continuous
 62
     2
100
AcDbLine
 10
-164.3499996187203
 20
-96.24999942828492
 30
0.0
 11
-164.3499996187203
 21
-106.2499994282849
 31
0.0
  0
LINE
  5
109
330
4E
100
AcDbEntity
  8
0
  6
Continuous
 62
     7
100
AcDbLine
 10
-164.8499996187203
 20
-96.24999942828492
 30
0.0
 11
-164.8499996187203
 21
-106.2499994282849
 31
0.0
  0
LINE
  5
10A
330
4E
100
AcDbEntity
  8
0
  6
Continuous
 62
     7
100
AcDbLine
 10
-164.3499996187203
 20
-96.24999942828492
 30
0.0
 11
-164.8499996187203
 21
-96.24999942828492
 31
0.0
  0
LINE
  5
10B
330
4E
100
AcDbEntity
  8
0
  6
Continuous
 62
     7
100
AcDbLine
 10
-156.0742651033349
 20
-105.2499994282849
 30
0.0
 11
-156.4499996187205
 21
-105.2499994282849
 31
0.0
  0
LINE
  5
10C
330
4E
100
AcDbEntity
  8
0
  6
Continuous
 62
     7
100
AcDbLine
 10
-156.4499996187205
 20
-103.7499994282849
 30
0.0
 11
-156.4499996187205
 21
-105.2499994282849
 31
0.0
  0
LINE
  5
10D
330
4E
100
AcDbEntity
  8
0
  6
Continuous
 62
     7
100
AcDbLine
 10
-153.8499994202628
 20
-104.9499994282849
 30
0.0
 11
-155.2749998171783
 21
-104.9499994282849
 31
0.0
  0
LINE
  5
10E
330
4E
100
AcDbEntity
  8
0
  6
Continuous
 62
     7
100
AcDbLine
 10
-160.0999996187206
 20
-101.7499994282849
 30
0.0
 11
-159.0999996187206
 21
-101.7499994282849
 31
0.0
  0
LINE
  5
10F
330
4E
100
AcDbEntity
  8
0
  6
Continuous
 62
     7
100
AcDbLine
 10
-150.0125007554798
 20
-103.2639724276203
 30
0.0
 11
-145.1360266193852
 21
-98.38749829152567
 31
0.0
  0
LINE
  5
110
330
4E
100
AcDbEntity
  8
0
  6
Continuous
 62
     7
100
AcDbLine
 10
-144.2874984819613
 20
-99.23602642894954
 30
0.0
 11
-149.1639726180559
 21
-104.1125005650442
 31
0.0
  0
LINE
  5
111
330
4E
100
AcDbEntity
  8
0
  6
Continuous
 62
     7
100
AcDbLine
 10
-139.1499996187206
 20
-94.09999942828492
 30
0.0
 11
-140.6499996187206
 21
-94.09999942828492
 31
0.0
  0
LINE
  5
112
330
4E
100
AcDbEntity
  8
0
  6
Continuous
 62
     7
100
AcDbLine
 10
-139.1499996187206
 20
-94.09999942828492
 30
0.0
 11
-139.1499996187206
 21
-96.0499994282849
 31
0.0
  0
LINE
  5
113
330
4E
100
AcDbEntity
  8
0
  6
Continuous
 62
     7
100
AcDbLine
 10
-139.1499996187206
 20
-96.0499994282849
 30
0.0
 11
-140.6499996187206
 21
-96.0499994282849
 31
0.0
  0
LINE
  5
114
330
4E
100
AcDbEntity
  8
0
  6
Continuous
 62
     7
100
AcDbLine
 10
-140.6499996187206
 20
-96.0499994282849
 30
0.0
 11
-140.6499996187206
 21
-96.24999942828492
 31
0.0
  0
LINE
  5
115
330
4E
100
AcDbEntity
  8
0
  6
Continuous
 62
     7
100
AcDbLine
 10
-139.0249996187206
 20
-104.9499994282849
 30
0.0
 11
-140.4499996187205
 21
-104.9499994282849
 31
0.0
  0
LINE
  5
116
330
4E
100
AcDbEntity
  8
0
  6
Continuous
 62
     7
100
AcDbLine
 10
-140.4499996187205
 20
-104.9499994282849
 30
0.0
 11
-140.4499996187205
 21
-97.54999942828493
 31
0.0
  0
LINE
  5
117
330
4E
100
AcDbEntity
  8
0
  6
Continuous
 62
     7
100
AcDbLine
 10
-139.0249996187206
 20
-97.54999942828493
 30
0.0
 11
-139.0249996187206
 21
-104.9499994282849
 31
0.0
  0
LINE
  5
118
330
4E
100
AcDbEntity
  8
0
  6
Continuous
 62
     7
100
AcDbLine
 10
-137.6499996187206
 20
-106.2499994282849
 30
0.0
 11
-137.6499996187206
 21
-96.24999942828492
 31
0.0
  0
LINE
  5
119
330
4E
100
AcDbEntity
  8
0
  6
Continuous
 62
     7
100
AcDbLine
 10
-140.6499996187206
 20
-94.09999942828492
 30
0.0
 11
-140.6499996187206
 21
-96.0499994282849
 31
0.0
  0
LINE
  5
11A
330
4E
100
AcDbEntity
  8
0
  6
Continuous
 62
     7
100
AcDbLine
 10
-162.7499996187206
 20
-105.2499994282849
 30
0.0
 11
-163.1257341341062
 21
-105.2499994282849
 31
0.0
  0
LINE
  5
11B
330
4E
100
AcDbEntity
  8
0
  6
Continuous
 62
     7
100
AcDbLine
 10
-162.7499996187206
 20
-103.7499994282849
 30
0.0
 11
-162.3249996187205
 21
-103.7499994282849
 31
0.0
  0
LINE
  5
11C
330
4E
100
AcDbEntity
  8
0
  6
Continuous
 62
     7
100
AcDbLine
 10
-156.8749996187206
 20
-103.7499994282849
 30
0.0
 11
-156.4499996187205
 21
-103.7499994282849
 31
0.0
  0
LINE
  5
11D
330
4E
100
AcDbEntity
  8
0
  6
Continuous
 62
     7
100
AcDbLine
 10
-157.4999996187205
 20
-103.7499994282849
 30
0.0
 11
-156.8749996187206
 21
-103.7499994282849
 31
0.0
  0
LINE
  5
11E
330
4E
100
AcDbEntity
  8
0
  6
Continuous
 62
     7
100
AcDbLine
 10
-162.3249996187205
 20
-103.7499994282849
 30
0.0
 11
-161.6999996187205
 21
-103.7499994282849
 31
0.0
  0
LINE
  5
11F
330
4E
100
AcDbEntity
  8
0
  6
Continuous
 62
     7
100
AcDbLine
 10
-162.7499996187206
 20
-105.2499994282849
 30
0.0
 11
-162.7499996187206
 21
-103.7499994282849
 31
0.0
  0
LINE
  5
120
330
4E
100
AcDbEntity
  8
0
  6
Continuous
 62
     7
100
AcDbLine
 10
-156.4499996187205
 20
-105.2499994282849
 30
0.0
 11
-162.7499996187206
 21
-105.2499994282849
 31
0.0
  0
LINE
  5
121
330
4E
100
AcDbEntity
  8
0
  6
Continuous
 62
     7
100
AcDbLine
 10
-164.3499996187203
 20
-106.2499994282849
 30
0.0
 11
-164.8499996187203
 21
-106.2499994282849
 31
0.0
  0
LINE
  5
122
330
4E
100
AcDbEntity
  8
0
  6
Continuous
 62
     7
100
AcDbLine
 10
-153.6499996187206
 20
-96.0499994282849
 30
0.0
 11
-155.1499996187206
 21
-96.0499994282849
 31
0.0
  0
LINE
  5
123
330
4E
100
AcDbEntity
  8
0
  6
Continuous
 62
     7
100
AcDbLine
 10
-155.1499996187206
 20
-94.09999942828492
 30
0.0
 11
-155.1499996187206
 21
-96.0499994282849
 31
0.0
  0
LINE
  5
124
330
4E
100
AcDbEntity
  8
0
  6
Continuous
 62
     7
100
AcDbLine
 10
-153.6499996187206
 20
-94.09999942828492
 30
0.0
 11
-155.1499996187206
 21
-94.09999942828492
 31
0.0
  0
LINE
  5
125
330
4E
100
AcDbEntity
  8
0
  6
Continuous
 62
     7
100
AcDbLine
 10
-140.6499996187206
 20
-94.09999942828492
 30
0.0
 11
-153.6499996187206
 21
-94.09999942828492
 31
0.0
  0
LINE
  5
126
330
4E
100
AcDbEntity
  8
0
  6
Continuous
 62
     7
100
AcDbLine
 10
-153.6499996187206
 20
-96.24999942828492
 30
0.0
 11
-153.6499996187206
 21
-96.0499994282849
 31
0.0
  0
LINE
  5
127
330
4E
100
AcDbEntity
  8
0
  6
Continuous
 62
     7
100
AcDbLine
 10
-153.6499996187206
 20
-96.0499994282849
 30
0.0
 11
-153.6499996187206
 21
-94.09999942828492
 31
0.0
  0
LINE
  5
128
330
4E
100
AcDbEntity
  8
0
  6
Continuous
 62
     7
100
AcDbLine
 10
-162.7499996187206
 20
-98.74999942828492
 30
0.0
 11
-162.3249996187205
 21
-98.74999942828492
 31
0.0
  0
LINE
  5
129
330
4E
100
AcDbEntity
  8
0
  6
Continuous
 62
     7
100
AcDbLine
 10
-156.8749996187206
 20
-98.74999942828492
 30
0.0
 11
-156.4499996187205
 21
-98.74999942828492
 31
0.0
  0
LINE
  5
12A
330
4E
100
AcDbEntity
  8
0
  6
Continuous
 62
     7
100
AcDbLine
 10
-157.4999996187205
 20
-98.74999942828492
 30
0.0
 11
-156.8749996187206
 21
-98.74999942828492
 31
0.0
  0
LINE
  5
12B
330
4E
100
AcDbEntity
  8
0
  6
Continuous
 62
     7
100
AcDbLine
 10
-162.3249996187205
 20
-98.74999942828492
 30
0.0
 11
-161.6999996187205
 21
-98.74999942828492
 31
0.0
  0
LINE
  5
12C
330
4E
100
AcDbEntity
  8
0
  6
Continuous
 62
     7
100
AcDbLine
 10
-162.7499996187206
 20
-98.74999942828492
 30
0.0
 11
-162.7499996187206
 21
-97.24999942828492
 31
0.0
  0
LINE
  5
12D
330
4E
100
AcDbEntity
  8
0
  6
Continuous
 62
     7
100
AcDbLine
 10
-156.4499996187205
 20
-97.24999942828492
 30
0.0
 11
-162.7499996187206
 21
-97.24999942828492
 31
0.0
  0
LINE
  5
12E
330
4E
100
AcDbEntity
  8
0
  6
Continuous
 62
     7
100
AcDbLine
 10
-140.4499996187205
 20
-97.54999942828493
 30
0.0
 11
-139.0249996187206
 21
-97.54999942828493
 31
0.0
  0
LINE
  5
12F
330
4E
100
AcDbEntity
  8
0
  6
Continuous
 62
     7
100
AcDbLine
 10
-137.6499996187206
 20
-96.24999942828492
 30
0.0
 11
-164.3499996187203
 21
-96.24999942828492
 31
0.0
  0
LINE
  5
130
330
4E
100
AcDbEntity
  8
0
  6
Continuous
 62
     7
100
AcDbLine
 10
-159.0999996187206
 20
-100.7499994282849
 30
0.0
 11
-160.0999996187206
 21
-100.7499994282849
 31
0.0
  0
LINE
  5
131
330
4E
100
AcDbEntity
  8
0
  6
Continuous
 62
     7
100
AcDbLine
 10
-139.1499996187206
 20
-108.3999994282848
 30
0.0
 11
-140.6499996187206
 21
-108.3999994282848
 31
0.0
  0
LINE
  5
132
330
4E
100
AcDbEntity
  8
0
  6
Continuous
 62
     7
100
AcDbLine
 10
-140.6499996187206
 20
-106.4499994282849
 30
0.0
 11
-139.1499996187206
 21
-106.4499994282849
 31
0.0
  0
LINE
  5
133
330
4E
100
AcDbEntity
  8
0
  6
Continuous
 62
     7
100
AcDbLine
 10
-155.1499996187206
 20
-106.449999428285
 30
0.0
 11
-153.6499996187206
 21
-106.449999428285
 31
0.0
  0
LINE
  5
134
330
4E
100
AcDbEntity
  8
0
  6
Continuous
 62
     7
100
AcDbLine
 10
-153.6499996187206
 20
-106.449999428285
 30
0.0
 11
-153.6499996187206
 21
-106.2499994282849
 31
0.0
  0
LINE
  5
135
330
4E
100
AcDbEntity
  8
0
  6
Continuous
 62
     7
100
AcDbLine
 10
-153.6499996187206
 20
-108.3999994282848
 30
0.0
 11
-153.6499996187206
 21
-106.449999428285
 31
0.0
  0
LINE
  5
136
330
4E
100
AcDbEntity
  8
0
  6
Continuous
 62
     7
100
AcDbLine
 10
-140.6499996187206
 20
-106.2499994282849
 30
0.0
 11
-140.6499996187206
 21
-106.4499994282849
 31
0.0
  0
LINE
  5
137
330
4E
100
AcDbEntity
  8
0
  6
Continuous
 62
     7
100
AcDbLine
 10
-140.6499996187206
 20
-106.4499994282849
 30
0.0
 11
-140.6499996187206
 21
-108.3999994282848
 31
0.0
  0
LINE
  5
138
330
4E
100
AcDbEntity
  8
0
  6
Continuous
 62
     7
100
AcDbLine
 10
-153.6499996187206
 20
-108.3999994282848
 30
0.0
 11
-140.6499996187206
 21
-108.3999994282848
 31
0.0
  0
LINE
  5
139
330
4E
100
AcDbEntity
  8
0
  6
Continuous
 62
     7
100
AcDbLine
 10
-137.6499996187206
 20
-106.2499994282849
 30
0.0
 11
-164.3499996187203
 21
-106.2499994282849
 31
0.0
  0
LINE
  5
13A
330
4E
100
AcDbEntity
  8
0
  6
Continuous
 62
     7
100
AcDbLine
 10
-139.1499996187206
 20
-106.4499994282849
 30
0.0
 11
-139.1499996187206
 21
-108.3999994282848
 31
0.0
  0
LINE
  5
13B
330
4E
100
AcDbEntity
  8
0
  6
Continuous
 62
     7
100
AcDbLine
 10
-155.2749998171783
 20
-104.9499994282849
 30
0.0
 11
-155.2749998171783
 21
-97.54999942828493
 31
0.0
  0
LINE
  5
13C
330
4E
100
AcDbEntity
  8
0
  6
Continuous
 62
     7
100
AcDbLine
 10
-156.0742651033349
 20
-97.24999942828492
 30
0.0
 11
-156.4499996187205
 21
-97.24999942828492
 31
0.0
  0
LINE
  5
13D
330
4E
100
AcDbEntity
  8
0
  6
Continuous
 62
     7
100
AcDbLine
 10
-156.4499996187205
 20
-97.24999942828492
 30
0.0
 11
-156.4499996187205
 21
-98.74999942828492
 31
0.0
  0
LINE
  5
13E
330
4E
100
AcDbEntity
  8
0
  6
Continuous
 62
     7
100
AcDbLine
 10
-155.2749998171783
 20
-97.54999942828493
 30
0.0
 11
-153.8499994202628
 21
-97.54999942828493
 31
0.0
  0
LINE
  5
13F
330
4E
100
AcDbEntity
  8
0
  6
Continuous
 62
     7
100
AcDbLine
 10
-153.8499994202628
 20
-97.54999942828493
 30
0.0
 11
-153.8499994202628
 21
-104.9499994282849
 31
0.0
  0
LINE
  5
140
330
4E
100
AcDbEntity
  8
0
  6
Continuous
 62
     7
100
AcDbLine
 10
-155.1499996187206
 20
-106.449999428285
 30
0.0
 11
-155.1499996187206
 21
-108.3999994282848
 31
0.0
  0
LINE
  5
141
330
4E
100
AcDbEntity
  8
0
  6
Continuous
 62
     7
100
AcDbLine
 10
-153.6499996187206
 20
-108.3999994282848
 30
0.0
 11
-155.1499996187206
 21
-108.3999994282848
 31
0.0
  0
LINE
  5
142
330
4E
100
AcDbEntity
  8
0
  6
Continuous
 62
     7
100
AcDbLine
 10
-159.0999996187206
 20
-101.7499994282849
 30
0.0
 11
-159.0999996187206
 21
-100.7499994282849
 31
0.0
  0
LINE
  5
143
330
4E
100
AcDbEntity
  8
0
  6
Continuous
 62
     7
100
AcDbLine
 10
-157.4999996187205
 20
-98.74999942828492
 30
0.0
 11
-157.4999996187205
 21
-103.7499994282849
 31
0.0
  0
LINE
  5
144
330
4E
100
AcDbEntity
  8
0
  6
Continuous
 62
     7
100
AcDbLine
 10
-156.8749996187206
 20
-103.7499994282849
 30
0.0
 11
-156.8749996187206
 21
-98.74999942828492
 31
0.0
  0
LINE
  5
145
330
4E
100
AcDbEntity
  8
0
  6
Continuous
 62
     7
100
AcDbLine
 10
-156.0742651033349
 20
-97.24999942828492
 30
0.0
 11
-156.0742651033349
 21
-105.2499994282849
 31
0.0
  0
ARC
  5
146
330
4E
100
AcDbEntity
  8
0
  6
Continuous
 62
     7
100
AcDbCircle
 10
-147.1499996187206
 20
-101.2499994282849
 30
0.0
 40
3.499999999999961
100
AcDbArc
 50
215.1291103938612
 51
234.8708896061414
  0
ARC
  5
147
330
4E
100
AcDbEntity
  8
0
  6
Continuous
 62
     7
100
AcDbCircle
 10
-147.1499996187206
 20
-101.2499994282849
 30
0.0
 40
3.5
100
AcDbArc
 50
180.0
 51
215.1291103938612
  0
ARC
  5
148
330
4E
100
AcDbEntity
  8
0
  6
Continuous
 62
     7
100
AcDbCircle
 10
-147.1499996187206
 20
-101.2499994282849
 30
0.0
 40
3.499999999999989
100
AcDbArc
 50
234.8708896061414
 51
35.12911039385936
  0
ARC
  5
149
330
4E
100
AcDbEntity
  8
0
  6
Continuous
 62
     7
100
AcDbCircle
 10
-147.1499996187206
 20
-101.2499994282849
 30
0.0
 40
3.499999999999984
100
AcDbArc
 50
54.87088960613907
 51
180.0
  0
ARC
  5
14A
330
4E
100
AcDbEntity
  8
0
  6
Continuous
 62
     7
100
AcDbCircle
 10
-147.1499996187206
 20
-101.2499994282849
 30
0.0
 40
3.500000000000022
100
AcDbArc
 50
35.12911039385936
 51
54.87088960613907
  0
ENDBLK
  5
50
330
4E
100
AcDbEntity
  8
0
100
AcDbBlockEnd
  0
BLOCK
  5
53
330
51
100
AcDbEntity
  8
0
100
AcDbBlockBegin
  2
Drfsicht1
 70
     0
 10
-151.2825727463721
 20
-101.250000000005
 30
0.0
  3
Drfsicht1
  1

  0
INSERT
  5
52
330
51
100
AcDbEntity
  8
0
100
AcDbBlockReference
  2
AKG_35_BU-select__2
 10
-164.8499996187203
 20
-108.3999994282848
 30
0.0
  0
MTEXT
  5
14B
330
51
100
AcDbEntity
  8
1
 62
     6
100
AcDbMText
 10
-151.2825727463718
 20
-110.8999996185353
 30
0.0
 40
2.5
 41
0.0
 71
     2
 72
     1
  1
 
  7
CONVERTER_11
 73
     1
 44
1.32052821128451
  0
DIMENSION
  5
156
330
51
100
AcDbEntity
  8
1
100
AcDbDimension
  2
*D17
 10
-169.2633894405982
 20
-94.09999942828496
 30
0.0
 11
-170.9758894405982
 21
-102.0746534125406
 31
0.0
 70
    32
  1
<>
 71
     5
 42
-1.0
 53
90.0
  3
ME10_DIM_10
100
AcDbAlignedDimension
 13
-153.6499996187206
 23
-108.3999994282848
 33
0.0
 14
-153.6499996187206
 24
-94.09999942828492
 34
0.0
 50
90.0
100
AcDbRotatedDimension
  0
ENDBLK
  5
54
330
51
100
AcDbEntity
  8
0
100
AcDbBlockEnd
  0
BLOCK
  5
56
330
55
100
AcDbEntity
  8
0
100
AcDbBlockBegin
  2
AKG_35_BU-select__3
 70
     0
 10
-103.3500003812797
 20
-79.59999961803021
 30
0.0
  3
AKG_35_BU-select__3
  1

  0
LINE
  5
157
330
55
100
AcDbEntity
  8
0
  6
Continuous
 62
     7
100
AcDbLine
 10
-100.7500003812797
 20
-58.39999961803023
 30
0.0
 11
-100.3500003812797
 21
-58.39999961803028
 31
0.0
  0
LINE
  5
158
330
55
100
AcDbEntity
  8
0
  6
Continuous
 62
     7
100
AcDbLine
 10
-101.8500003812797
 20
-58.39999961803028
 30
0.0
 11
-100.7500003812797
 21
-58.39999961803023
 31
0.0
  0
LINE
  5
159
330
55
100
AcDbEntity
  8
0
  6
Continuous
 62
     7
100
AcDbLine
 10
-86.95000038127974
 20
-58.39999961803023
 30
0.0
 11
-85.85000038127973
 21
-58.39999961803028
 31
0.0
  0
LINE
  5
15A
330
55
100
AcDbEntity
  8
0
  6
Continuous
 62
     7
100
AcDbLine
 10
-99.0000003812797
 20
-73.69999961803023
 30
0.0
 11
-97.00000038127973
 21
-73.69999961803023
 31
0.0
  0
LINE
  5
15B
330
55
100
AcDbEntity
  8
0
  6
Continuous
 62
     7
100
AcDbLine
 10
-90.70000038127974
 20
-73.69999961803023
 30
0.0
 11
-88.70000038127971
 21
-73.69999961803023
 31
0.0
  0
LINE
  5
15C
330
55
100
AcDbEntity
  8
0
  6
Continuous
 62
     7
100
AcDbLine
 10
-85.85000038127973
 20
-79.59999961803021
 30
0.0
 11
-101.8500003812797
 21
-79.59999961803021
 31
0.0
  0
LINE
  5
15D
330
55
100
AcDbEntity
  8
0
  6
Continuous
 62
     7
100
AcDbLine
 10
-85.95000038127974
 20
-58.39999961803027
 30
0.0
 11
-85.95000038127974
 21
-42.19999961803021
 31
0.0
  0
LINE
  5
15E
330
55
100
AcDbEntity
  8
0
  6
Continuous
 62
     7
100
AcDbLine
 10
-86.95000038127974
 20
-42.19999961803021
 30
0.0
 11
-86.95000038127974
 21
-58.39999961803023
 31
0.0
  0
LINE
  5
15F
330
55
100
AcDbEntity
  8
0
  6
Continuous
 62
     7
100
AcDbLine
 10
-87.35000038127973
 20
-58.39999961803028
 30
0.0
 11
-86.95000038127974
 21
-58.39999961803023
 31
0.0
  0
LINE
  5
160
330
55
100
AcDbEntity
  8
0
  6
Continuous
 62
     7
100
AcDbLine
 10
-87.35000038127973
 20
-58.39999961803028
 30
0.0
 11
-87.35000038127973
 21
-55.89999961803022
 31
0.0
  0
LINE
  5
161
330
55
100
AcDbEntity
  8
0
  6
Continuous
 62
     7
100
AcDbLine
 10
-88.70000038127971
 20
-73.69999961803023
 30
0.0
 11
-88.70000038127971
 21
-70.39999961803028
 31
0.0
  0
LINE
  5
162
330
55
100
AcDbEntity
  8
0
  6
Continuous
 62
     7
100
AcDbLine
 10
-85.85000038127973
 20
-58.39999961803028
 30
0.0
 11
-85.85000038127973
 21
-79.59999961803021
 31
0.0
  0
LINE
  5
163
330
55
100
AcDbEntity
  8
0
  6
Continuous
 62
     7
100
AcDbLine
 10
-100.3500003812797
 20
-58.39999961803028
 30
0.0
 11
-100.3500003812797
 21
-55.89999961803022
 31
0.0
  0
LINE
  5
164
330
55
100
AcDbEntity
  8
0
  6
Continuous
 62
     7
100
AcDbLine
 10
-100.7500003812797
 20
-42.19999961803021
 30
0.0
 11
-100.7500003812797
 21
-58.39999961803023
 31
0.0
  0
LINE
  5
165
330
55
100
AcDbEntity
  8
0
  6
Continuous
 62
     7
100
AcDbLine
 10
-101.7500003812797
 20
-58.39999961803027
 30
0.0
 11
-101.7500003812797
 21
-42.19999961803021
 31
0.0
  0
LINE
  5
166
330
55
100
AcDbEntity
  8
0
  6
Continuous
 62
     7
100
AcDbLine
 10
-86.95000038127974
 20
-42.19999961803021
 30
0.0
 11
-85.95000038127974
 21
-42.19999961803021
 31
0.0
  0
LINE
  5
167
330
55
100
AcDbEntity
  8
0
  6
Continuous
 62
     7
100
AcDbLine
 10
-90.85000038127973
 20
-42.19999961803021
 30
0.0
 11
-86.95000038127974
 21
-42.19999961803021
 31
0.0
  0
LINE
  5
168
330
55
100
AcDbEntity
  8
0
  6
Continuous
 62
     7
100
AcDbLine
 10
-97.60000038127973
 20
-55.89999961803022
 30
0.0
 11
-97.60000038127973
 21
-54.39999961803022
 31
0.0
  0
LINE
  5
169
330
55
100
AcDbEntity
  8
0
  6
Continuous
 62
     7
100
AcDbLine
 10
-97.60000038127973
 20
-54.39999961803022
 30
0.0
 11
-96.85000038127971
 21
-54.39999961803022
 31
0.0
  0
LINE
  5
16A
330
55
100
AcDbEntity
  8
0
  6
Continuous
 62
     7
100
AcDbLine
 10
-90.85000038127973
 20
-54.39999961803022
 30
0.0
 11
-90.10000038127973
 21
-54.39999961803022
 31
0.0
  0
LINE
  5
16B
330
55
100
AcDbEntity
  8
0
  6
Continuous
 62
     7
100
AcDbLine
 10
-96.85000038127971
 20
-54.39999961803022
 30
0.0
 11
-90.85000038127973
 21
-54.39999961803022
 31
0.0
  0
LINE
  5
16C
330
55
100
AcDbEntity
  8
0
  6
Continuous
 62
     7
100
AcDbLine
 10
-90.10000038127973
 20
-55.89999961803022
 30
0.0
 11
-90.10000038127973
 21
-54.39999961803022
 31
0.0
  0
LINE
  5
16D
330
55
100
AcDbEntity
  8
0
  6
Continuous
 62
     7
100
AcDbLine
 10
-96.85000038127971
 20
-54.39999961803022
 30
0.0
 11
-96.85000038127971
 21
-42.19999961803021
 31
0.0
  0
LINE
  5
16E
330
55
100
AcDbEntity
  8
0
  6
Continuous
 62
     7
100
AcDbLine
 10
-101.7500003812797
 20
-42.19999961803021
 30
0.0
 11
-100.7500003812797
 21
-42.19999961803021
 31
0.0
  0
LINE
  5
16F
330
55
100
AcDbEntity
  8
0
  6
Continuous
 62
     7
100
AcDbLine
 10
-103.3500003812797
 20
-42.19999961803021
 30
0.0
 11
-101.7500003812797
 21
-42.19999961803021
 31
0.0
  0
LINE
  5
170
330
55
100
AcDbEntity
  8
0
  6
Continuous
 62
     7
100
AcDbLine
 10
-96.85000038127971
 20
-42.19999961803021
 30
0.0
 11
-90.85000038127973
 21
-42.19999961803021
 31
0.0
  0
LINE
  5
171
330
55
100
AcDbEntity
  8
0
  6
Continuous
 62
     7
100
AcDbLine
 10
-100.7500003812797
 20
-42.19999961803021
 30
0.0
 11
-96.85000038127971
 21
-42.19999961803021
 31
0.0
  0
LINE
  5
172
330
55
100
AcDbEntity
  8
0
  6
Continuous
 62
     7
100
AcDbLine
 10
-90.85000038127973
 20
-54.39999961803022
 30
0.0
 11
-90.85000038127973
 21
-42.19999961803021
 31
0.0
  0
LINE
  5
173
330
55
100
AcDbEntity
  8
0
  6
Continuous
 62
     7
100
AcDbLine
 10
-100.3500003812797
 20
-55.89999961803022
 30
0.0
 11
-97.60000038127973
 21
-55.89999961803022
 31
0.0
  0
LINE
  5
174
330
55
100
AcDbEntity
  8
0
  6
Continuous
 62
     7
100
AcDbLine
 10
-90.10000038127973
 20
-55.89999961803022
 30
0.0
 11
-87.35000038127973
 21
-55.89999961803022
 31
0.0
  0
LINE
  5
175
330
55
100
AcDbEntity
  8
0
  6
Continuous
 62
     7
100
AcDbLine
 10
-97.60000038127973
 20
-55.89999961803022
 30
0.0
 11
-90.10000038127973
 21
-55.89999961803022
 31
0.0
  0
LINE
  5
176
330
55
100
AcDbEntity
  8
0
  6
Continuous
 62
     7
100
AcDbLine
 10
-85.95000038127974
 20
-42.19999961803021
 30
0.0
 11
-76.8829528339677
 21
-42.19999961803021
 31
0.0
  0
LINE
  5
177
330
55
100
AcDbEntity
  8
0
  6
Continuous
 62
     7
100
AcDbLine
 10
-103.3500003812797
 20
-35.69999961803021
 30
0.0
 11
-76.65000038128001
 21
-35.69999961803021
 31
0.0
  0
LINE
  5
178
330
55
100
AcDbEntity
  8
0
  6
Continuous
 62
     7
100
AcDbLine
 10
-101.8500003812797
 20
-79.59999961803021
 30
0.0
 11
-101.8500003812797
 21
-58.39999961803028
 31
0.0
  0
LINE
  5
179
330
55
100
AcDbEntity
  8
0
  6
Continuous
 62
     7
100
AcDbLine
 10
-103.3500003812797
 20
-35.69999961803021
 30
0.0
 11
-103.3500003812797
 21
-42.19999961803021
 31
0.0
  0
LINE
  5
17A
330
55
100
AcDbEntity
  8
0
  6
Continuous
 62
     7
100
AcDbLine
 10
-99.0000003812797
 20
-70.39999961803028
 30
0.0
 11
-99.0000003812797
 21
-73.69999961803023
 31
0.0
  0
LINE
  5
17B
330
55
100
AcDbEntity
  8
0
  6
Continuous
 62
     7
100
AcDbLine
 10
-88.70000038127971
 20
-70.39999961803028
 30
0.0
 11
-99.0000003812797
 21
-70.39999961803028
 31
0.0
  0
LINE
  5
17C
330
55
100
AcDbEntity
  8
0
  6
Continuous
 62
     7
100
AcDbLine
 10
-90.70000038127974
 20
-76.69999961803023
 30
0.0
 11
-90.70000038127974
 21
-73.69999961803023
 31
0.0
  0
LINE
  5
17D
330
55
100
AcDbEntity
  8
0
  6
Continuous
 62
     7
100
AcDbLine
 10
-97.00000038127973
 20
-73.69999961803023
 30
0.0
 11
-97.00000038127972
 21
-76.69999961803023
 31
0.0
  0
LINE
  5
17E
330
55
100
AcDbEntity
  8
0
  6
Continuous
 62
     7
100
AcDbLine
 10
-97.00000038127972
 20
-76.69999961803023
 30
0.0
 11
-90.70000038127974
 21
-76.69999961803023
 31
0.0
  0
LINE
  5
17F
330
55
100
AcDbEntity
  8
0
  6
Continuous
 62
     7
100
AcDbLine
 10
-76.8829528339677
 20
-42.19999961803021
 30
0.0
 11
-76.15372730545934
 21
-36.26093428973276
 31
0.0
  0
ARC
  5
180
330
55
100
AcDbEntity
  8
0
  6
Continuous
 62
     7
100
AcDbCircle
 10
-76.65000038128001
 20
-36.19999961803021
 30
0.0
 40
0.5000000000000032
100
AcDbArc
 50
353.0000000000031
 51
90.0
  0
ENDBLK
  5
57
330
55
100
AcDbEntity
  8
0
100
AcDbBlockEnd
  0
BLOCK
  5
5A
330
58
100
AcDbEntity
  8
0
100
AcDbBlockBegin
  2
Rckans1
 70
     0
 10
-89.71742725362816
 20
-62.99999999975002
 30
0.0
  3
Rckans1
  1

  0
INSERT
  5
59
330
58
100
AcDbEntity
  8
0
100
AcDbBlockReference
  2
AKG_35_BU-select__3
 10
-103.3500003812797
 20
-79.59999961803021
 30
0.0
  0
MTEXT
  5
181
330
58
100
AcDbEntity
  8
1
 62
     6
100
AcDbMText
 10
-89.71742725362816
 20
-82.10000038121973
 30
0.0
 40
2.5
 41
0.0
 71
     2
 72
     1
  1
 
  7
CONVERTER_11
 73
     1
 44
1.32052821128451
  0
ENDBLK
  5
5B
330
58
100
AcDbEntity
  8
0
100
AcDbBlockEnd
  0
BLOCK
  5
5D
330
5C
100
AcDbEntity
  8
0
100
AcDbBlockBegin
  2
AKG_35_BU-select__4
 70
     0
 10
-127.6500005717151
 20
-79.5999996180302
 30
0.0
  3
AKG_35_BU-select__4
  1

  0
LINE
  5
182
330
5C
100
AcDbEntity
  8
0
  6
Continuous
 62
     7
100
AcDbLine
 10
-125.5000005717151
 20
-35.69999961803018
 30
0.0
 11
-125.5000005717151
 21
-36.26093428973273
 31
0.0
  0
LINE
  5
183
330
5C
100
AcDbEntity
  8
0
  6
Continuous
 62
     2
100
AcDbLine
 10
-125.5000005717151
 20
-36.26093428973273
 30
0.0
 11
-115.5000005717151
 21
-36.26093428973273
 31
0.0
  0
LINE
  5
184
330
5C
100
AcDbEntity
  8
0
  6
Continuous
 62
     7
100
AcDbLine
 10
-125.5000005717151
 20
-35.69999961803018
 30
0.0
 11
-115.5000005717151
 21
-35.69999961803018
 31
0.0
  0
LINE
  5
185
330
5C
100
AcDbEntity
  8
0
  6
Continuous
 62
     7
100
AcDbLine
 10
-115.5000005717151
 20
-35.69999961803018
 30
0.0
 11
-115.5000005717151
 21
-36.26093428973273
 31
0.0
  0
LINE
  5
186
330
5C
100
AcDbEntity
  8
0
  6
Continuous
 62
     7
100
AcDbLine
 10
-120.5000005717151
 20
-59.42724095398236
 30
0.0
 11
-125.250000571715
 21
-60.69999961803019
 31
0.0
  0
LINE
  5
187
330
5C
100
AcDbEntity
  8
0
  6
Continuous
 62
     7
100
AcDbLine
 10
-113.3500005717152
 20
-55.8999996180302
 30
0.0
 11
-115.7500005717151
 21
-55.8999996180302
 31
0.0
  0
LINE
  5
188
330
5C
100
AcDbEntity
  8
0
  6
Continuous
 62
     7
100
AcDbLine
 10
-125.2500005717151
 20
-55.8999996180302
 30
0.0
 11
-127.6500005717151
 21
-55.8999996180302
 31
0.0
  0
LINE
  5
189
330
5C
100
AcDbEntity
  8
0
  6
Continuous
 62
     7
100
AcDbLine
 10
-113.3500005717151
 20
-79.5999996180302
 30
0.0
 11
-113.3500005717152
 21
-58.39999961803014
 31
0.0
  0
LINE
  5
18A
330
5C
100
AcDbEntity
  8
0
  6
Continuous
 62
     7
100
AcDbLine
 10
-115.3000005717151
 20
-58.39999961803015
 30
0.0
 11
-115.3000005717151
 21
-79.5999996180302
 31
0.0
  0
LINE
  5
18B
330
5C
100
AcDbEntity
  8
0
  6
Continuous
 62
     7
100
AcDbLine
 10
-115.3000005717151
 20
-58.39999961803015
 30
0.0
 11
-113.3500005717152
 21
-58.39999961803014
 31
0.0
  0
LINE
  5
18C
330
5C
100
AcDbEntity
  8
0
  6
Continuous
 62
     7
100
AcDbLine
 10
-113.3500005717151
 20
-79.5999996180302
 30
0.0
 11
-115.3000005717151
 21
-79.5999996180302
 31
0.0
  0
LINE
  5
18D
330
5C
100
AcDbEntity
  8
0
  6
Continuous
 62
     7
100
AcDbLine
 10
-115.5000005717151
 20
-42.19999961803019
 30
0.0
 11
-115.5000005717151
 21
-36.26093428973273
 31
0.0
  0
LINE
  5
18E
330
5C
100
AcDbEntity
  8
0
  6
Continuous
 62
     7
100
AcDbLine
 10
-113.3500005717152
 20
-58.39999961803014
 30
0.0
 11
-113.3500005717152
 21
-55.8999996180302
 31
0.0
  0
LINE
  5
18F
330
5C
100
AcDbEntity
  8
0
  6
Continuous
 62
     7
100
AcDbLine
 10
-127.6500005717151
 20
-58.39999961803025
 30
0.0
 11
-127.6500005717151
 21
-79.5999996180302
 31
0.0
  0
LINE
  5
190
330
5C
100
AcDbEntity
  8
0
  6
Continuous
 62
     7
100
AcDbLine
 10
-125.7000005717151
 20
-79.5999996180302
 30
0.0
 11
-125.7000005717151
 21
-58.3999996180302
 31
0.0
  0
LINE
  5
191
330
5C
100
AcDbEntity
  8
0
  6
Continuous
 62
     7
100
AcDbLine
 10
-125.7000005717151
 20
-79.5999996180302
 30
0.0
 11
-127.6500005717151
 21
-79.5999996180302
 31
0.0
  0
LINE
  5
192
330
5C
100
AcDbEntity
  8
0
  6
Continuous
 62
     7
100
AcDbLine
 10
-125.250000571715
 20
-60.69999961803019
 30
0.0
 11
-125.2500005717151
 21
-58.3999996180302
 31
0.0
  0
LINE
  5
193
330
5C
100
AcDbEntity
  8
0
  6
Continuous
 62
     7
100
AcDbLine
 10
-127.6500005717151
 20
-58.39999961803025
 30
0.0
 11
-125.7000005717151
 21
-58.3999996180302
 31
0.0
  0
LINE
  5
194
330
5C
100
AcDbEntity
  8
0
  6
Continuous
 62
     7
100
AcDbLine
 10
-125.2500005717151
 20
-55.8999996180302
 30
0.0
 11
-125.2500005717151
 21
-58.3999996180302
 31
0.0
  0
LINE
  5
195
330
5C
100
AcDbEntity
  8
0
  6
Continuous
 62
     7
100
AcDbLine
 10
-125.7000005717151
 20
-58.3999996180302
 30
0.0
 11
-125.2500005717151
 21
-58.3999996180302
 31
0.0
  0
LINE
  5
196
330
5C
100
AcDbEntity
  8
0
  6
Continuous
 62
     7
100
AcDbLine
 10
-125.5000005717151
 20
-42.19999961803018
 30
0.0
 11
-125.5000005717151
 21
-36.26093428973273
 31
0.0
  0
LINE
  5
197
330
5C
100
AcDbEntity
  8
0
  6
Continuous
 62
     7
100
AcDbLine
 10
-127.6500005717151
 20
-58.39999961803025
 30
0.0
 11
-127.6500005717151
 21
-55.8999996180302
 31
0.0
  0
LINE
  5
198
330
5C
100
AcDbEntity
  8
0
  6
Continuous
 62
     7
100
AcDbLine
 10
-125.2500005717151
 20
-42.19999961803019
 30
0.0
 11
-125.2500005717151
 21
-55.8999996180302
 31
0.0
  0
LINE
  5
199
330
5C
100
AcDbEntity
  8
0
  6
Continuous
 62
     7
100
AcDbLine
 10
-125.2500005717151
 20
-42.19999961803019
 30
0.0
 11
-125.5000005717151
 21
-42.19999961803018
 31
0.0
  0
LINE
  5
19A
330
5C
100
AcDbEntity
  8
0
  6
Continuous
 62
     7
100
AcDbLine
 10
-115.5000005717151
 20
-42.19999961803019
 30
0.0
 11
-115.7500005717151
 21
-42.19999961803018
 31
0.0
  0
LINE
  5
19B
330
5C
100
AcDbEntity
  8
0
  6
Continuous
 62
     7
100
AcDbLine
 10
-115.7500005717151
 20
-42.19999961803018
 30
0.0
 11
-125.2500005717151
 21
-42.19999961803019
 31
0.0
  0
LINE
  5
19C
330
5C
100
AcDbEntity
  8
0
  6
Continuous
 62
     7
100
AcDbLine
 10
-115.7500005717151
 20
-58.3999996180302
 30
0.0
 11
-115.3000005717151
 21
-58.39999961803015
 31
0.0
  0
LINE
  5
19D
330
5C
100
AcDbEntity
  8
0
  6
Continuous
 62
     7
100
AcDbLine
 10
-115.7500005717151
 20
-58.3999996180302
 30
0.0
 11
-115.7500005717151
 21
-42.19999961803018
 31
0.0
  0
LINE
  5
19E
330
5C
100
AcDbEntity
  8
0
  6
Continuous
 62
     7
100
AcDbLine
 10
-115.7500005717151
 20
-60.69999961803019
 30
0.0
 11
-115.7500005717151
 21
-58.3999996180302
 31
0.0
  0
LINE
  5
19F
330
5C
100
AcDbEntity
  8
0
  6
Continuous
 62
     7
100
AcDbLine
 10
-115.7500005717151
 20
-60.69999961803019
 30
0.0
 11
-120.5000005717151
 21
-59.42724095398236
 31
0.0
  0
ENDBLK
  5
5E
330
5C
100
AcDbEntity
  8
0
100
AcDbBlockEnd
  0
BLOCK
  5
61
330
5F
100
AcDbEntity
  8
0
100
AcDbBlockBegin
  2
SA_Links1
 70
     0
 10
-120.499999999995
 20
-62.99999999975
 30
0.0
  3
SA_Links1
  1

  0
INSERT
  5
60
330
5F
100
AcDbEntity
  8
0
100
AcDbBlockReference
  2
AKG_35_BU-select__4
 10
-127.6500005717151
 20
-79.5999996180302
 30
0.0
  0
MTEXT
  5
1A0
330
5F
100
AcDbEntity
  8
1
 62
     6
100
AcDbMText
 10
-120.499999999995
 20
-82.10000038121973
 30
0.0
 40
2.5
 41
0.0
 71
     2
 72
     1
  1
 
  7
CONVERTER_11
 73
     1
 44
1.32052821128451
  0
ENDBLK
  5
62
330
5F
100
AcDbEntity
  8
0
100
AcDbBlockEnd
  0
BLOCK
  5
64
330
63
100
AcDbEntity
  8
0
100
AcDbBlockBegin
  2
AKG_35_BU-select__5
 70
     0
 10
-194.7151449208387
 20
-79.59999961803022
 30
0.0
  3
AKG_35_BU-select__5
  1

  0
LINE
  5
1A1
330
63
100
AcDbEntity
  8
0
  6
Continuous
 62
     7
100
AcDbLine
 10
-187.5651449208388
 20
-59.42724095398241
 30
0.0
 11
-182.8151449208388
 21
-60.69999961803022
 31
0.0
  0
LINE
  5
1A2
330
63
100
AcDbEntity
  8
0
  6
Continuous
 62
     7
100
AcDbLine
 10
-182.8151449208387
 20
-42.19999961803022
 30
0.0
 11
-182.5651449208387
 21
-42.19999961803022
 31
0.0
  0
LINE
  5
1A3
330
63
100
AcDbEntity
  8
0
  6
Continuous
 62
     7
100
AcDbLine
 10
-192.3151449208387
 20
-42.19999961803022
 30
0.0
 11
-182.8151449208387
 21
-42.19999961803022
 31
0.0
  0
LINE
  5
1A4
330
63
100
AcDbEntity
  8
0
  6
Continuous
 62
     7
100
AcDbLine
 10
-192.5651449208387
 20
-35.69999961803022
 30
0.0
 11
-182.5651449208387
 21
-35.69999961803022
 31
0.0
  0
LINE
  5
1A5
330
63
100
AcDbEntity
  8
0
  6
Continuous
 62
     7
100
AcDbLine
 10
-192.7651449208387
 20
-79.59999961803022
 30
0.0
 11
-192.7651449208387
 21
-58.39999961803019
 31
0.0
  0
LINE
  5
1A6
330
63
100
AcDbEntity
  8
0
  6
Continuous
 62
     7
100
AcDbLine
 10
-182.3651449208387
 20
-79.59999961803022
 30
0.0
 11
-180.4151449208387
 21
-79.59999961803022
 31
0.0
  0
LINE
  5
1A7
330
63
100
AcDbEntity
  8
0
  6
Continuous
 62
     7
100
AcDbLine
 10
-180.4151449208387
 20
-79.59999961803022
 30
0.0
 11
-180.4151449208387
 21
-58.39999961803028
 31
0.0
  0
LINE
  5
1A8
330
63
100
AcDbEntity
  8
0
  6
Continuous
 62
     7
100
AcDbLine
 10
-182.3651449208387
 20
-58.39999961803027
 30
0.0
 11
-182.3651449208387
 21
-79.59999961803022
 31
0.0
  0
LINE
  5
1A9
330
63
100
AcDbEntity
  8
0
  6
Continuous
 62
     7
100
AcDbLine
 10
-182.8151449208388
 20
-60.69999961803022
 30
0.0
 11
-182.8151449208387
 21
-58.39999961803023
 31
0.0
  0
LINE
  5
1AA
330
63
100
AcDbEntity
  8
0
  6
Continuous
 62
     7
100
AcDbLine
 10
-180.4151449208387
 20
-58.39999961803028
 30
0.0
 11
-182.3651449208387
 21
-58.39999961803027
 31
0.0
  0
LINE
  5
1AB
330
63
100
AcDbEntity
  8
0
  6
Continuous
 62
     7
100
AcDbLine
 10
-180.4151449208387
 20
-55.89999961803023
 30
0.0
 11
-182.8151449208387
 21
-55.89999961803023
 31
0.0
  0
LINE
  5
1AC
330
63
100
AcDbEntity
  8
0
  6
Continuous
 62
     7
100
AcDbLine
 10
-182.8151449208387
 20
-55.89999961803023
 30
0.0
 11
-182.8151449208387
 21
-58.39999961803023
 31
0.0
  0
LINE
  5
1AD
330
63
100
AcDbEntity
  8
0
  6
Continuous
 62
     7
100
AcDbLine
 10
-182.5651449208387
 20
-35.69999961803022
 30
0.0
 11
-182.5651449208387
 21
-42.19999961803022
 31
0.0
  0
LINE
  5
1AE
330
63
100
AcDbEntity
  8
0
  6
Continuous
 62
     7
100
AcDbLine
 10
-182.8151449208387
 20
-58.39999961803023
 30
0.0
 11
-182.3651449208387
 21
-58.39999961803027
 31
0.0
  0
LINE
  5
1AF
330
63
100
AcDbEntity
  8
0
  6
Continuous
 62
     7
100
AcDbLine
 10
-182.8151449208387
 20
-42.19999961803022
 30
0.0
 11
-182.8151449208387
 21
-55.89999961803023
 31
0.0
  0
LINE
  5
1B0
330
63
100
AcDbEntity
  8
0
  6
Continuous
 62
     7
100
AcDbLine
 10
-180.4151449208387
 20
-58.39999961803028
 30
0.0
 11
-180.4151449208387
 21
-55.89999961803023
 31
0.0
  0
LINE
  5
1B1
330
63
100
AcDbEntity
  8
0
  6
Continuous
 62
     7
100
AcDbLine
 10
-194.7151449208386
 20
-58.39999961803018
 30
0.0
 11
-194.7151449208387
 21
-79.59999961803022
 31
0.0
  0
LINE
  5
1B2
330
63
100
AcDbEntity
  8
0
  6
Continuous
 62
     7
100
AcDbLine
 10
-192.3151449208388
 20
-60.69999961803022
 30
0.0
 11
-192.3151449208387
 21
-58.39999961803023
 31
0.0
  0
LINE
  5
1B3
330
63
100
AcDbEntity
  8
0
  6
Continuous
 62
     7
100
AcDbLine
 10
-192.7651449208387
 20
-58.39999961803019
 30
0.0
 11
-194.7151449208386
 21
-58.39999961803018
 31
0.0
  0
LINE
  5
1B4
330
63
100
AcDbEntity
  8
0
  6
Continuous
 62
     7
100
AcDbLine
 10
-192.7651449208387
 20
-79.59999961803022
 30
0.0
 11
-194.7151449208387
 21
-79.59999961803022
 31
0.0
  0
LINE
  5
1B5
330
63
100
AcDbEntity
  8
0
  6
Continuous
 62
     7
100
AcDbLine
 10
-192.5651449208387
 20
-42.19999961803022
 30
0.0
 11
-192.3151449208387
 21
-42.19999961803022
 31
0.0
  0
LINE
  5
1B6
330
63
100
AcDbEntity
  8
0
  6
Continuous
 62
     7
100
AcDbLine
 10
-192.7651449208387
 20
-58.39999961803019
 30
0.0
 11
-192.3151449208387
 21
-58.39999961803023
 31
0.0
  0
LINE
  5
1B7
330
63
100
AcDbEntity
  8
0
  6
Continuous
 62
     7
100
AcDbLine
 10
-192.5651449208387
 20
-35.69999961803022
 30
0.0
 11
-192.5651449208387
 21
-42.19999961803022
 31
0.0
  0
LINE
  5
1B8
330
63
100
AcDbEntity
  8
0
  6
Continuous
 62
     7
100
AcDbLine
 10
-194.7151449208386
 20
-58.39999961803018
 30
0.0
 11
-194.7151449208386
 21
-55.89999961803023
 31
0.0
  0
LINE
  5
1B9
330
63
100
AcDbEntity
  8
0
  6
Continuous
 62
     7
100
AcDbLine
 10
-192.3151449208387
 20
-55.89999961803023
 30
0.0
 11
-194.7151449208386
 21
-55.89999961803023
 31
0.0
  0
LINE
  5
1BA
330
63
100
AcDbEntity
  8
0
  6
Continuous
 62
     7
100
AcDbLine
 10
-192.3151449208387
 20
-58.39999961803023
 30
0.0
 11
-192.3151449208387
 21
-55.89999961803023
 31
0.0
  0
LINE
  5
1BB
330
63
100
AcDbEntity
  8
0
  6
Continuous
 62
     7
100
AcDbLine
 10
-192.3151449208387
 20
-55.89999961803023
 30
0.0
 11
-192.3151449208387
 21
-42.19999961803022
 31
0.0
  0
LINE
  5
1BC
330
63
100
AcDbEntity
  8
0
  6
Continuous
 62
     7
100
AcDbLine
 10
-192.3151449208388
 20
-60.69999961803022
 30
0.0
 11
-187.5651449208388
 21
-59.42724095398241
 31
0.0
  0
ENDBLK
  5
65
330
63
100
AcDbEntity
  8
0
100
AcDbBlockEnd
  0
BLOCK
  5
68
330
66
100
AcDbEntity
  8
0
100
AcDbBlockBegin
  2
SA_Rechts1
 70
     0
 10
-187.5651454925588
 20
-62.99999999975002
 30
0.0
  3
SA_Rechts1
  1

  0
INSERT
  5
67
330
66
100
AcDbEntity
  8
0
100
AcDbBlockReference
  2
AKG_35_BU-select__5
 10
-194.7151449208387
 20
-79.59999961803022
 30
0.0
  0
MTEXT
  5
1BD
330
66
100
AcDbEntity
  8
1
 62
     6
100
AcDbMText
 10
-187.5651454925587
 20
-82.10000038121973
 30
0.0
 40
2.5
 41
0.0
 71
     2
 72
     1
  1
 
  7
CONVERTER_11
 73
     1
 44
1.32052821128451
  0
ENDBLK
  5
69
330
66
100
AcDbEntity
  8
0
100
AcDbBlockEnd
  0
BLOCK
  5
6B
330
6A
100
AcDbEntity
  8
0
100
AcDbBlockBegin
  2
AKG_35_BU-select__6
 70
     0
 10
-164.8499996187203
 20
-79.59999961803022
 30
0.0
  3
AKG_35_BU-select__6
  1

  0
LINE
  5
1BE
330
6A
100
AcDbEntity
  8
0
  6
Continuous
 62
     7
100
AcDbLine
 10
-153.6499996187206
 20
-58.39999961803018
 30
0.0
 11
-153.6499996187206
 21
-55.89999961803023
 31
0.0
  0
LINE
  5
1BF
330
6A
100
AcDbEntity
  8
0
  6
Continuous
 62
     7
100
AcDbLine
 10
-152.2999996187206
 20
-70.39999961803018
 30
0.0
 11
-152.2999996187206
 21
-73.69999961803012
 31
0.0
  0
LINE
  5
1C0
330
6A
100
AcDbEntity
  8
0
  6
Continuous
 62
     7
100
AcDbLine
 10
-141.9999996187206
 20
-73.69999961803012
 30
0.0
 11
-141.9999996187206
 21
-70.39999961803018
 31
0.0
  0
LINE
  5
1C1
330
6A
100
AcDbEntity
  8
0
  6
Continuous
 62
     7
100
AcDbLine
 10
-143.9999996187206
 20
-73.69999961803012
 30
0.0
 11
-141.9999996187206
 21
-73.69999961803012
 31
0.0
  0
LINE
  5
1C2
330
6A
100
AcDbEntity
  8
0
  6
Continuous
 62
     7
100
AcDbLine
 10
-152.2999996187206
 20
-73.69999961803012
 30
0.0
 11
-150.2999996187206
 21
-73.69999961803012
 31
0.0
  0
LINE
  5
1C3
330
6A
100
AcDbEntity
  8
0
  6
Continuous
 62
     7
100
AcDbLine
 10
-141.9999996187206
 20
-70.39999961803018
 30
0.0
 11
-152.2999996187206
 21
-70.39999961803018
 31
0.0
  0
LINE
  5
1C4
330
6A
100
AcDbEntity
  8
0
  6
Continuous
 62
     7
100
AcDbLine
 10
-150.2999996187206
 20
-73.69999961803012
 30
0.0
 11
-150.2999996187206
 21
-76.69999961803012
 31
0.0
  0
LINE
  5
1C5
330
6A
100
AcDbEntity
  8
0
  6
Continuous
 62
     7
100
AcDbLine
 10
-143.9999996187206
 20
-76.69999961803012
 30
0.0
 11
-143.9999996187206
 21
-73.69999961803012
 31
0.0
  0
LINE
  5
1C6
330
6A
100
AcDbEntity
  8
0
  6
Continuous
 62
     7
100
AcDbLine
 10
-150.2999996187206
 20
-76.69999961803012
 30
0.0
 11
-143.9999996187206
 21
-76.69999961803012
 31
0.0
  0
LINE
  5
1C7
330
6A
100
AcDbEntity
  8
0
  6
Continuous
 62
     7
100
AcDbLine
 10
-140.6499996187206
 20
-58.39999961803018
 30
0.0
 11
-140.6499996187206
 21
-55.89999961803023
 31
0.0
  0
LINE
  5
1C8
330
6A
100
AcDbEntity
  8
0
  6
Continuous
 62
     7
100
AcDbLine
 10
-140.2499996187206
 20
-58.39999961803024
 30
0.0
 11
-140.2499996187206
 21
-42.19999961803022
 31
0.0
  0
LINE
  5
1C9
330
6A
100
AcDbEntity
  8
0
  6
Continuous
 62
     7
100
AcDbLine
 10
-155.0499996187206
 20
-58.39999961803018
 30
0.0
 11
-155.1499996187206
 21
-58.39999961803018
 31
0.0
  0
LINE
  5
1CA
330
6A
100
AcDbEntity
  8
0
  6
Continuous
 62
     7
100
AcDbLine
 10
-153.6499996187206
 20
-58.39999961803018
 30
0.0
 11
-154.0499996187206
 21
-58.39999961803024
 31
0.0
  0
LINE
  5
1CB
330
6A
100
AcDbEntity
  8
0
  6
Continuous
 62
     7
100
AcDbLine
 10
-154.0499996187206
 20
-58.39999961803024
 30
0.0
 11
-155.0499996187206
 21
-58.39999961803018
 31
0.0
  0
LINE
  5
1CC
330
6A
100
AcDbEntity
  8
0
  6
Continuous
 62
     7
100
AcDbLine
 10
-154.0499996187206
 20
-58.39999961803024
 30
0.0
 11
-154.0499996187206
 21
-42.19999961803022
 31
0.0
  0
LINE
  5
1CD
330
6A
100
AcDbEntity
  8
0
  6
Continuous
 62
     7
100
AcDbLine
 10
-155.0499996187206
 20
-58.39999961803018
 30
0.0
 11
-155.0499996187206
 21
-42.19999961803022
 31
0.0
  0
LINE
  5
1CE
330
6A
100
AcDbEntity
  8
0
  6
Continuous
 62
     7
100
AcDbLine
 10
-155.1499996187206
 20
-79.59999961803022
 30
0.0
 11
-155.1499996187206
 21
-58.39999961803018
 31
0.0
  0
LINE
  5
1CF
330
6A
100
AcDbEntity
  8
0
  6
Continuous
 62
     7
100
AcDbLine
 10
-140.2499996187206
 20
-58.39999961803024
 30
0.0
 11
-140.6499996187206
 21
-58.39999961803018
 31
0.0
  0
LINE
  5
1D0
330
6A
100
AcDbEntity
  8
0
  6
Continuous
 62
     7
100
AcDbLine
 10
-139.2499996187206
 20
-58.39999961803018
 30
0.0
 11
-140.2499996187206
 21
-58.39999961803024
 31
0.0
  0
LINE
  5
1D1
330
6A
100
AcDbEntity
  8
0
  6
Continuous
 62
     7
100
AcDbLine
 10
-137.6499996187206
 20
-35.69999961803021
 30
0.0
 11
-137.6499996187206
 21
-42.19999961803021
 31
0.0
  0
LINE
  5
1D2
330
6A
100
AcDbEntity
  8
0
  6
Continuous
 62
     7
100
AcDbLine
 10
-139.1499996187206
 20
-58.39999961803018
 30
0.0
 11
-139.2499996187206
 21
-58.39999961803018
 31
0.0
  0
LINE
  5
1D3
330
6A
100
AcDbEntity
  8
0
  6
Continuous
 62
     7
100
AcDbLine
 10
-139.2499996187206
 20
-58.39999961803018
 30
0.0
 11
-139.2499996187206
 21
-42.19999961803022
 31
0.0
  0
LINE
  5
1D4
330
6A
100
AcDbEntity
  8
0
  6
Continuous
 62
     7
100
AcDbLine
 10
-139.1499996187206
 20
-58.39999961803018
 30
0.0
 11
-139.1499996187206
 21
-79.59999961803022
 31
0.0
  0
LINE
  5
1D5
330
6A
100
AcDbEntity
  8
0
  6
Continuous
 62
     7
100
AcDbLine
 10
-144.1499996187206
 20
-54.39999961803023
 30
0.0
 11
-144.1499996187206
 21
-42.19999961803022
 31
0.0
  0
LINE
  5
1D6
330
6A
100
AcDbEntity
  8
0
  6
Continuous
 62
     7
100
AcDbLine
 10
-143.3999996187206
 20
-55.89999961803023
 30
0.0
 11
-143.3999996187206
 21
-54.39999961803023
 31
0.0
  0
LINE
  5
1D7
330
6A
100
AcDbEntity
  8
0
  6
Continuous
 62
     7
100
AcDbLine
 10
-150.8999996187206
 20
-55.89999961803023
 30
0.0
 11
-150.8999996187206
 21
-54.39999961803023
 31
0.0
  0
LINE
  5
1D8
330
6A
100
AcDbEntity
  8
0
  6
Continuous
 62
     7
100
AcDbLine
 10
-150.8999996187206
 20
-54.39999961803023
 30
0.0
 11
-150.1499996187206
 21
-54.39999961803023
 31
0.0
  0
LINE
  5
1D9
330
6A
100
AcDbEntity
  8
0
  6
Continuous
 62
     7
100
AcDbLine
 10
-144.1499996187206
 20
-54.39999961803023
 30
0.0
 11
-143.3999996187206
 21
-54.39999961803023
 31
0.0
  0
LINE
  5
1DA
330
6A
100
AcDbEntity
  8
0
  6
Continuous
 62
     7
100
AcDbLine
 10
-150.1499996187206
 20
-54.39999961803023
 30
0.0
 11
-144.1499996187206
 21
-54.39999961803023
 31
0.0
  0
LINE
  5
1DB
330
6A
100
AcDbEntity
  8
0
  6
Continuous
 62
     7
100
AcDbLine
 10
-150.1499996187206
 20
-54.39999961803023
 30
0.0
 11
-150.1499996187206
 21
-42.19999961803022
 31
0.0
  0
LINE
  5
1DC
330
6A
100
AcDbEntity
  8
0
  6
Continuous
 62
     7
100
AcDbLine
 10
-139.2499996187206
 20
-42.19999961803022
 30
0.0
 11
-140.2499996187206
 21
-42.19999961803022
 31
0.0
  0
LINE
  5
1DD
330
6A
100
AcDbEntity
  8
0
  6
Continuous
 62
     7
100
AcDbLine
 10
-140.2499996187206
 20
-42.19999961803022
 30
0.0
 11
-144.1499996187206
 21
-42.19999961803022
 31
0.0
  0
LINE
  5
1DE
330
6A
100
AcDbEntity
  8
0
  6
Continuous
 62
     7
100
AcDbLine
 10
-150.1499996187206
 20
-42.19999961803022
 30
0.0
 11
-154.0499996187206
 21
-42.19999961803022
 31
0.0
  0
LINE
  5
1DF
330
6A
100
AcDbEntity
  8
0
  6
Continuous
 62
     7
100
AcDbLine
 10
-154.0499996187206
 20
-42.19999961803022
 30
0.0
 11
-155.0499996187206
 21
-42.19999961803022
 31
0.0
  0
LINE
  5
1E0
330
6A
100
AcDbEntity
  8
0
  6
Continuous
 62
     7
100
AcDbLine
 10
-144.1499996187206
 20
-42.19999961803022
 30
0.0
 11
-150.1499996187206
 21
-42.19999961803022
 31
0.0
  0
LINE
  5
1E1
330
6A
100
AcDbEntity
  8
0
  6
Continuous
 62
     7
100
AcDbLine
 10
-137.6499996187206
 20
-42.19999961803021
 30
0.0
 11
-139.2499996187206
 21
-42.19999961803022
 31
0.0
  0
LINE
  5
1E2
330
6A
100
AcDbEntity
  8
0
  6
Continuous
 62
     7
100
AcDbLine
 10
-155.0499996187206
 20
-42.19999961803022
 30
0.0
 11
-164.1170471660326
 21
-42.19999961803021
 31
0.0
  0
LINE
  5
1E3
330
6A
100
AcDbEntity
  8
0
  6
Continuous
 62
     7
100
AcDbLine
 10
-137.6499996187206
 20
-35.69999961803021
 30
0.0
 11
-164.3499996187203
 21
-35.69999961803021
 31
0.0
  0
LINE
  5
1E4
330
6A
100
AcDbEntity
  8
0
  6
Continuous
 62
     7
100
AcDbLine
 10
-143.3999996187206
 20
-55.89999961803023
 30
0.0
 11
-140.6499996187206
 21
-55.89999961803023
 31
0.0
  0
LINE
  5
1E5
330
6A
100
AcDbEntity
  8
0
  6
Continuous
 62
     7
100
AcDbLine
 10
-153.6499996187206
 20
-55.89999961803023
 30
0.0
 11
-150.8999996187206
 21
-55.89999961803023
 31
0.0
  0
LINE
  5
1E6
330
6A
100
AcDbEntity
  8
0
  6
Continuous
 62
     7
100
AcDbLine
 10
-150.8999996187206
 20
-55.89999961803023
 30
0.0
 11
-143.3999996187206
 21
-55.89999961803023
 31
0.0
  0
LINE
  5
1E7
330
6A
100
AcDbEntity
  8
0
  6
Continuous
 62
     7
100
AcDbLine
 10
-139.1499996187206
 20
-79.59999961803022
 30
0.0
 11
-155.1499996187206
 21
-79.59999961803022
 31
0.0
  0
LINE
  5
1E8
330
6A
100
AcDbEntity
  8
0
  6
Continuous
 62
     7
100
AcDbLine
 10
-164.1170471660326
 20
-42.19999961803021
 30
0.0
 11
-164.8462726945409
 21
-36.26093428973276
 31
0.0
  0
ARC
  5
1E9
330
6A
100
AcDbEntity
  8
0
  6
Continuous
 62
     7
100
AcDbCircle
 10
-164.3499996187203
 20
-36.19999961803021
 30
0.0
 40
0.5
100
AcDbArc
 50
90.0
 51
186.9999999999979
  0
ENDBLK
  5
6C
330
6A
100
AcDbEntity
  8
0
100
AcDbBlockEnd
  0
BLOCK
  5
6F
330
6D
100
AcDbEntity
  8
0
100
AcDbBlockBegin
  2
Vordans1
 70
     0
 10
-151.2825727463721
 20
-62.99999999975002
 30
0.0
  3
Vordans1
  1

  0
INSERT
  5
6E
330
6D
100
AcDbEntity
  8
0
100
AcDbBlockReference
  2
AKG_35_BU-select__6
 10
-164.8499996187203
 20
-79.59999961803022
 30
0.0
  0
MTEXT
  5
1EA
330
6D
100
AcDbEntity
  8
1
 62
     6
100
AcDbMText
 10
-151.2825727463718
 20
-82.10000038121973
 30
0.0
 40
2.5
 41
0.0
 71
     2
 72
     1
  1
 
  7
CONVERTER_11
 73
     1
 44
1.32052821128451
  0
DIMENSION
  5
1F5
330
6D
100
AcDbEntity
  8
1
100
AcDbDimension
  2
*D18
 10
-169.9151468119011
 20
-79.59999961803024
 30
0.0
 11
-171.6276468119011
 21
-57.89210337188128
 31
0.0
 70
    32
  1
<>
 71
     5
 42
-1.0
 53
90.0
  3
ME10_DIM_11
100
AcDbAlignedDimension
 13
-164.3499996187203
 23
-35.69999961803021
 33
0.0
 14
-155.1499996187206
 24
-79.59999961803022
 34
0.0
 50
90.0
100
AcDbRotatedDimension
  0
DIMENSION
  5
200
330
6D
100
AcDbEntity
  8
1
100
AcDbDimension
  2
*D19
 10
-155.1499996187206
 20
-83.62777777778041
 30
0.0
 11
-146.3333333333287
 21
-82.00277777778041
 31
0.0
 70
    32
  1
<>
 71
     5
 42
-1.0
 53
0.00013888888889
  3
ME10_DIM_12
100
AcDbAlignedDimension
 13
-139.1499996187206
 23
-58.39999961803018
 33
0.0
 14
-155.1499996187206
 24
-58.39999961803018
 34
0.0
100
AcDbRotatedDimension
  0
DIMENSION
  5
20B
330
6D
100
AcDbEntity
  8
1
100
AcDbDimension
  2
*D20
 10
-164.846272694541
 20
-87.99982356059404
 30
0.0
 11
-150.822197180371
 21
-86.28732356059403
 31
0.0
 70
    32
  1
<>
 71
     5
 42
-1.0
 53
0.00013888888889
  3
ME10_DIM_13
100
AcDbAlignedDimension
 13
-137.6499996187206
 23
-35.69999961803021
 33
0.0
 14
-164.8462726945409
 24
-36.26093428973276
 34
0.0
100
AcDbRotatedDimension
  0
ENDBLK
  5
70
330
6D
100
AcDbEntity
  8
0
100
AcDbBlockEnd
  0
BLOCK
  5
72
330
71
100
AcDbEntity
  8
0
100
AcDbBlockBegin
  2
_rahmen
 70
     0
 10
-131.7999992374409
 20
-253.3753521426991
 30
0.0
  3
_rahmen
  1

  0
LINE
  5
20C
330
71
100
AcDbEntity
  8
1
  6
DOT_CENTER
 62
     2
100
AcDbLine
 10
-257.3581488776284
 20
-227.250352142699
 30
0.0
 11
-251.8581488776284
 21
-227.250352142699
 31
0.0
  0
LINE
  5
20D
330
71
100
AcDbEntity
  8
1
  6
PHANTOM
 62
     2
100
AcDbLine
 10
-248.6081488776284
 20
-224.500352142699
 30
0.0
 11
-248.6081488776284
 21
-230.000352142699
 31
0.0
  0
LINE
  5
20E
330
71
100
AcDbEntity
  8
1
  6
PHANTOM
 62
     2
100
AcDbLine
 10
-245.8581488776284
 20
-227.250352142699
 30
0.0
 11
-251.3581488776284
 21
-227.250352142699
 31
0.0
  0
LINE
  5
20F
330
71
100
AcDbEntity
  8
1
  6
Continuous
 62
     7
100
AcDbLine
 10
-197.044803764191
 20
-239.875352142699
 30
0.0
 11
-197.044803764191
 21
-231.3753521426989
 31
0.0
  0
LINE
  5
210
330
71
100
AcDbEntity
  8
1
  6
Continuous
 62
     6
100
AcDbLine
 10
-224.9448037641911
 20
-231.3753521426989
 30
0.0
 11
-131.7999992374393
 21
-231.3753521426989
 31
0.0
  0
LINE
  5
211
330
71
100
AcDbEntity
  8
1
  6
Continuous
 62
     7
100
AcDbLine
 10
-261.3448037641909
 20
-231.3753521426989
 30
0.0
 11
-261.3448037641909
 21
-222.8753521426989
 31
0.0
  0
LINE
  5
212
330
71
100
AcDbEntity
  8
1
  6
Continuous
 62
     7
100
AcDbLine
 10
-224.9448037641911
 20
-231.3753521426989
 30
0.0
 11
-224.9448037641911
 21
-222.8753521426989
 31
0.0
  0
LINE
  5
213
330
71
100
AcDbEntity
  8
1
  6
Continuous
 62
     7
100
AcDbLine
 10
-167.2184075191181
 20
-222.8753521426989
 30
0.0
 11
-167.2184075191181
 21
-231.3753521426989
 31
0.0
  0
LINE
  5
214
330
71
100
AcDbEntity
  8
1
  6
Continuous
 62
     7
100
AcDbLine
 10
-140.7184075191185
 20
-222.8753521426989
 30
0.0
 11
-140.7184075191185
 21
-231.3753521426989
 31
0.0
  0
LINE
  5
215
330
71
100
AcDbEntity
  8
1
  6
Continuous
 62
     6
100
AcDbLine
 10
-330.3448037641909
 20
-248.3753521426989
 30
0.0
 11
-375.2999992374409
 21
-248.3753521426989
 31
0.0
  0
LINE
  5
216
330
71
100
AcDbEntity
  8
1
  6
Continuous
 62
     7
100
AcDbLine
 10
-131.7999992374397
 20
-239.8753521426989
 30
0.0
 11
-224.9448037641911
 21
-239.8753521426989
 31
0.0
  0
LINE
  5
217
102
{ACAD_REACTORS
330
329
330
32A
102
}
330
71
100
AcDbEntity
  8
0
  6
Continuous
 62
     2
100
AcDbLine
 10
-247.6373748224236
 20
-239.0750630270356
 30
0.0
 11
-247.6373748224236
 21
-238.2025460202324
 31
0.0
  0
LINE
  5
218
102
{ACAD_REACTORS
330
329
330
32A
102
}
330
71
100
AcDbEntity
  8
0
  6
Continuous
 62
     2
100
AcDbLine
 10
-247.6373748224236
 20
-240.0348317345186
 30
0.0
 11
-247.6373748224236
 21
-240.9073487413218
 31
0.0
  0
LINE
  5
219
102
{ACAD_REACTORS
330
32B
330
32C
102
}
330
71
100
AcDbEntity
  8
0
  6
Continuous
 62
     2
100
AcDbLine
 10
-232.3043306861331
 20
-238.8133079249951
 30
0.0
 11
-231.200691386565
 21
-238.8133079249951
 31
0.0
  0
LINE
  5
21A
102
{ACAD_REACTORS
330
32B
330
32C
102
}
330
71
100
AcDbEntity
  8
0
  6
Continuous
 62
     2
100
AcDbLine
 10
-231.5346733431717
 20
-240.034831734519
 30
0.0
 11
-231.5346733431717
 21
-240.9073487413224
 31
0.0
  0
LINE
  5
21B
102
{ACAD_REACTORS
330
335
330
336
102
}
330
71
100
AcDbEntity
  8
0
  6
Continuous
 62
     2
100
AcDbLine
 10
-233.3954299585516
 20
-237.7226616665083
 30
0.0
 11
-231.9974769116113
 21
-236.1418026727334
 31
0.0
  0
LINE
  5
21C
102
{ACAD_REACTORS
330
335
330
336
102
}
330
71
100
AcDbEntity
  8
0
  6
Continuous
 62
     2
100
AcDbLine
 10
-233.3000065423788
 20
-234.6688521426972
 30
0.0
 11
-231.9974769116113
 21
-236.1418026727334
 31
0.0
  0
LINE
  5
21D
102
{ACAD_REACTORS
330
335
330
336
102
}
330
71
100
AcDbEntity
  8
0
  6
Continuous
 62
     2
100
AcDbLine
 10
-230.6949472808449
 20
-234.6688521426972
 30
0.0
 11
-229.2922230630977
 21
-234.6688521426972
 31
0.0
  0
LINE
  5
21E
102
{ACAD_REACTORS
330
335
330
336
102
}
330
71
100
AcDbEntity
  8
0
  6
Continuous
 62
     2
100
AcDbLine
 10
-231.9927057408034
 20
-237.7226616665083
 30
0.0
 11
-231.2961148027377
 21
-236.9349298812146
 31
0.0
  0
LINE
  5
21F
102
{ACAD_REACTORS
330
335
330
336
102
}
330
71
100
AcDbEntity
  8
0
  6
Continuous
 62
     2
100
AcDbLine
 10
-231.9927057408034
 20
-237.7226616665083
 30
0.0
 11
-233.3954299585516
 21
-237.7226616665083
 31
0.0
  0
LINE
  5
220
102
{ACAD_REACTORS
330
337
330
338
102
}
330
71
100
AcDbEntity
  8
0
  6
Continuous
 62
     2
100
AcDbLine
 10
-233.5147092287685
 20
-237.7226616665083
 30
0.0
 11
-234.7552136390214
 21
-237.7226616665083
 31
0.0
  0
LINE
  5
221
102
{ACAD_REACTORS
330
339
330
33A
102
}
330
71
100
AcDbEntity
  8
0
  6
Continuous
 62
     2
100
AcDbLine
 10
-235.6231932471765
 20
-239.8603283331582
 30
0.0
 11
-235.9233584843666
 21
-239.0925133671715
 31
0.0
  0
LINE
  5
222
102
{ACAD_REACTORS
330
339
330
33A
102
}
330
71
100
AcDbEntity
  8
0
  6
Continuous
 62
     2
100
AcDbLine
 10
-236.223523721559
 20
-239.8603283331582
 30
0.0
 11
-235.6231932471765
 21
-239.8603283331582
 31
0.0
  0
LINE
  5
223
102
{ACAD_REACTORS
330
339
330
33A
102
}
330
71
100
AcDbEntity
  8
0
  6
Continuous
 62
     2
100
AcDbLine
 10
-237.9415637364328
 20
-241.0818521426826
 30
0.0
 11
-236.7010593261798
 21
-241.0818521426826
 31
0.0
  0
LINE
  5
224
102
{ACAD_REACTORS
330
339
330
33A
102
}
330
71
100
AcDbEntity
  8
0
  6
Continuous
 62
     2
100
AcDbLine
 10
-236.5436106894935
 20
-238.0280426188716
 30
0.0
 11
-235.3031062792408
 21
-238.0280426188716
 31
0.0
  0
LINE
  5
225
102
{ACAD_REACTORS
330
339
330
33A
102
}
330
71
100
AcDbEntity
  8
0
  6
Continuous
 62
     2
100
AcDbLine
 10
-235.3031062792408
 20
-238.0280426188716
 30
0.0
 11
-233.9051532323005
 21
-241.0818521426826
 31
0.0
  0
LINE
  5
226
102
{ACAD_REACTORS
330
339
330
33A
102
}
330
71
100
AcDbEntity
  8
0
  6
Continuous
 62
     2
100
AcDbLine
 10
-235.1456576425544
 20
-241.0818521426826
 30
0.0
 11
-235.3571376960302
 21
-240.5408915984648
 31
0.0
  0
LINE
  5
227
102
{ACAD_REACTORS
330
33B
330
33C
102
}
330
71
100
AcDbEntity
  8
0
  6
Continuous
 62
     2
100
AcDbLine
 10
-239.2879768381404
 20
-241.0818521426826
 30
0.0
 11
-238.0951841359739
 21
-241.0818521426826
 31
0.0
  0
LINE
  5
228
102
{ACAD_REACTORS
330
33B
330
33C
102
}
330
71
100
AcDbEntity
  8
0
  6
Continuous
 62
     2
100
AcDbLine
 10
-239.2879768381404
 20
-238.8133079249951
 30
0.0
 11
-239.2879768381404
 21
-241.0818521426826
 31
0.0
  0
LINE
  5
229
102
{ACAD_REACTORS
330
33B
330
33C
102
}
330
71
100
AcDbEntity
  8
0
  6
Continuous
 62
     2
100
AcDbLine
 10
-240.099075875615
 20
-238.0280426188716
 30
0.0
 11
-240.099075875615
 21
-238.8133079249951
 31
0.0
  0
LINE
  5
22A
102
{ACAD_REACTORS
330
33D
330
33E
102
}
330
71
100
AcDbEntity
  8
0
  6
Continuous
 62
     2
100
AcDbLine
 10
-238.6198619940424
 20
-237.7226616665083
 30
0.0
 11
-237.4270692918759
 21
-237.7226616665083
 31
0.0
  0
LINE
  5
22B
102
{ACAD_REACTORS
330
33D
330
33E
102
}
330
71
100
AcDbEntity
  8
0
  6
Continuous
 62
     2
100
AcDbLine
 10
-236.1865648816219
 20
-235.9776276529023
 30
0.0
 11
-237.4270692918759
 21
-234.6688521426972
 31
0.0
  0
LINE
  5
22C
102
{ACAD_REACTORS
330
33D
330
33E
102
}
330
71
100
AcDbEntity
  8
0
  6
Continuous
 62
     2
100
AcDbLine
 10
-234.9937721794553
 20
-234.6688521426972
 30
0.0
 11
-236.1865648816219
 21
-234.6688521426972
 31
0.0
  0
LINE
  5
22D
102
{ACAD_REACTORS
330
33D
330
33E
102
}
330
71
100
AcDbEntity
  8
0
  6
Continuous
 62
     2
100
AcDbLine
 10
-234.9937721794553
 20
-237.7226616665083
 30
0.0
 11
-234.9937721794553
 21
-234.6688521426972
 31
0.0
  0
LINE
  5
22E
102
{ACAD_REACTORS
330
33D
330
33E
102
}
330
71
100
AcDbEntity
  8
0
  6
Continuous
 62
     2
100
AcDbLine
 10
-236.1865648816219
 20
-237.7226616665083
 30
0.0
 11
-234.9937721794553
 21
-237.7226616665083
 31
0.0
  0
LINE
  5
22F
102
{ACAD_REACTORS
330
33D
330
33E
102
}
330
71
100
AcDbEntity
  8
0
  6
Continuous
 62
     2
100
AcDbLine
 10
-237.4270692918759
 20
-236.4138861563037
 30
0.0
 11
-236.1865648816219
 21
-237.7226616665083
 31
0.0
  0
LINE
  5
230
102
{ACAD_REACTORS
330
33F
330
340
102
}
330
71
100
AcDbEntity
  8
0
  6
Continuous
 62
     2
100
AcDbLine
 10
-241.4350037020416
 20
-239.3368181290767
 30
0.0
 11
-242.6755081122945
 21
-238.0280426188716
 31
0.0
  0
LINE
  5
231
102
{ACAD_REACTORS
330
33F
330
340
102
}
330
71
100
AcDbEntity
  8
0
  6
Continuous
 62
     2
100
AcDbLine
 10
-241.4350037020416
 20
-238.0280426188716
 30
0.0
 11
-241.4350037020416
 21
-239.3368181290767
 31
0.0
  0
LINE
  5
232
102
{ACAD_REACTORS
330
33F
330
340
102
}
330
71
100
AcDbEntity
  8
0
  6
Continuous
 62
     2
100
AcDbLine
 10
-240.2422109998752
 20
-238.0280426188716
 30
0.0
 11
-241.4350037020416
 21
-238.0280426188716
 31
0.0
  0
LINE
  5
233
102
{ACAD_REACTORS
330
33F
330
340
102
}
330
71
100
AcDbEntity
  8
0
  6
Continuous
 62
     2
100
AcDbLine
 10
-240.2422109998752
 20
-241.0818521426826
 30
0.0
 11
-240.2422109998752
 21
-238.0280426188716
 31
0.0
  0
LINE
  5
234
102
{ACAD_REACTORS
330
33F
330
340
102
}
330
71
100
AcDbEntity
  8
0
  6
Continuous
 62
     2
100
AcDbLine
 10
-242.6755081122945
 20
-239.7730766324781
 30
0.0
 11
-241.4350037020416
 21
-241.0818521426826
 31
0.0
  0
LINE
  5
235
102
{ACAD_REACTORS
330
33F
330
340
102
}
330
71
100
AcDbEntity
  8
0
  6
Continuous
 62
     2
100
AcDbLine
 10
-242.6755081122945
 20
-241.0818521426826
 30
0.0
 11
-242.6755081122945
 21
-239.7730766324781
 31
0.0
  0
LINE
  5
236
102
{ACAD_REACTORS
330
32F
330
330
102
}
330
71
100
AcDbEntity
  8
0
  6
Continuous
 62
     2
100
AcDbLine
 10
-240.194348360903
 20
-235.3668657481401
 30
0.0
 11
-238.8584205344753
 21
-235.3668657481401
 31
0.0
  0
LINE
  5
237
102
{ACAD_REACTORS
330
32F
330
330
102
}
330
71
100
AcDbEntity
  8
0
  6
Continuous
 62
     2
100
AcDbLine
 10
-240.194348360903
 20
-237.0246480610659
 30
0.0
 11
-240.194348360903
 21
-236.5447637073241
 31
0.0
  0
LINE
  5
238
102
{ACAD_REACTORS
330
32F
330
330
102
}
330
71
100
AcDbEntity
  8
0
  6
Continuous
 62
     2
100
AcDbLine
 10
-238.8584205344753
 20
-237.0246480610659
 30
0.0
 11
-240.194348360903
 21
-237.0246480610659
 31
0.0
  0
LINE
  5
239
102
{ACAD_REACTORS
330
32F
330
330
102
}
330
71
100
AcDbEntity
  8
0
  6
Continuous
 62
     2
100
AcDbLine
 10
-238.8584205344753
 20
-237.7226616665083
 30
0.0
 11
-238.8584205344753
 21
-237.0246480610659
 31
0.0
  0
LINE
  5
23A
102
{ACAD_REACTORS
330
32F
330
330
102
}
330
71
100
AcDbEntity
  8
0
  6
Continuous
 62
     2
100
AcDbLine
 10
-242.0087402582563
 20
-237.7226616665083
 30
0.0
 11
-238.8584205344753
 21
-237.7226616665083
 31
0.0
  0
LINE
  5
23B
102
{ACAD_REACTORS
330
32F
330
330
102
}
330
71
100
AcDbEntity
  8
0
  6
Continuous
 62
     2
100
AcDbLine
 10
-242.0087402582563
 20
-234.6688521426972
 30
0.0
 11
-238.8584205344753
 21
-234.6688521426972
 31
0.0
  0
LINE
  5
23C
102
{ACAD_REACTORS
330
32F
330
330
102
}
330
71
100
AcDbEntity
  8
0
  6
Continuous
 62
     2
100
AcDbLine
 10
-238.8584205344753
 20
-235.3668657481401
 30
0.0
 11
-238.8584205344753
 21
-234.6688521426972
 31
0.0
  0
LINE
  5
23D
102
{ACAD_REACTORS
330
341
330
342
102
}
330
71
100
AcDbEntity
  8
0
  6
Continuous
 62
     2
100
AcDbLine
 10
-244.8700957533963
 20
-235.7376854760317
 30
0.0
 11
-244.8700957533963
 21
-234.6688521426972
 31
0.0
  0
LINE
  5
23E
102
{ACAD_REACTORS
330
341
330
342
102
}
330
71
100
AcDbEntity
  8
0
  6
Continuous
 62
     2
100
AcDbLine
 10
-244.8700957533963
 20
-234.6688521426972
 30
0.0
 11
-243.6773030512299
 21
-234.6688521426972
 31
0.0
  0
LINE
  5
23F
102
{ACAD_REACTORS
330
341
330
342
102
}
330
71
100
AcDbEntity
  8
0
  6
Continuous
 62
     2
100
AcDbLine
 10
-244.8700957533963
 20
-236.5883895576645
 30
0.0
 11
-245.9197533313038
 21
-236.5883895576645
 31
0.0
  0
LINE
  5
240
102
{ACAD_REACTORS
330
341
330
342
102
}
330
71
100
AcDbEntity
  8
0
  6
Continuous
 62
     2
100
AcDbLine
 10
-245.9197533313038
 20
-236.5883895576645
 30
0.0
 11
-245.9197533313038
 21
-237.7226616665083
 31
0.0
  0
LINE
  5
241
102
{ACAD_REACTORS
330
341
330
342
102
}
330
71
100
AcDbEntity
  8
0
  6
Continuous
 62
     2
100
AcDbLine
 10
-247.1125460334704
 20
-234.6688521426972
 30
0.0
 11
-247.1125460334704
 21
-237.7226616665083
 31
0.0
  0
LINE
  5
242
102
{ACAD_REACTORS
330
333
330
334
102
}
330
71
100
AcDbEntity
  8
0
  6
Continuous
 62
     2
100
AcDbLine
 10
-249.068726065024
 20
-236.0376856374795
 30
0.0
 11
-249.068726065024
 21
-235.3319579881373
 31
0.0
  0
LINE
  5
243
102
{ACAD_REACTORS
330
333
330
334
102
}
330
71
100
AcDbEntity
  8
0
  6
Continuous
 62
     2
100
AcDbLine
 10
-250.3092304752781
 20
-237.7226616665083
 30
0.0
 11
-249.068726065024
 21
-237.7226616665083
 31
0.0
  0
LINE
  5
244
102
{ACAD_REACTORS
330
333
330
334
102
}
330
71
100
AcDbEntity
  8
0
  6
Continuous
 62
     2
100
AcDbLine
 10
-249.068726065024
 20
-237.7226616665083
 30
0.0
 11
-249.068726065024
 21
-236.7795834253645
 31
0.0
  0
LINE
  5
245
102
{ACAD_REACTORS
330
32D
330
32E
102
}
330
71
100
AcDbEntity
  8
0
  6
Continuous
 62
     2
100
AcDbLine
 10
-254.6141763244895
 20
-240.3692965871258
 30
0.0
 11
-256.0900095854991
 21
-240.3692965871258
 31
0.0
  0
LINE
  5
246
102
{ACAD_REACTORS
330
32D
330
32E
102
}
330
71
100
AcDbEntity
  8
0
  6
Continuous
 62
     2
100
AcDbLine
 10
-257.1081488776284
 20
-235.0930967580991
 30
0.0
 11
-257.1081488776284
 21
-240.6576075272994
 31
0.0
  0
LINE
  5
247
102
{ACAD_REACTORS
330
32D
330
32E
102
}
330
71
100
AcDbEntity
  8
0
  6
Continuous
 62
     2
100
AcDbLine
 10
-256.6839042622456
 20
-234.6688521427153
 30
0.0
 11
-251.2105921715288
 21
-234.6688521427153
 31
0.0
  0
LINE
  5
248
102
{ACAD_REACTORS
330
32D
330
32E
102
}
330
71
100
AcDbEntity
  8
0
  6
Continuous
 62
     2
100
AcDbLine
 10
-250.7863475561449
 20
-235.0930967580991
 30
0.0
 11
-250.7863475561449
 21
-240.6576075272994
 31
0.0
  0
LINE
  5
249
102
{ACAD_REACTORS
330
32D
330
32E
102
}
330
71
100
AcDbEntity
  8
0
  6
Continuous
 62
     2
100
AcDbLine
 10
-251.2105921715288
 20
-241.0818521426826
 30
0.0
 11
-256.6839042622456
 21
-241.0818521426826
 31
0.0
  0
LINE
  5
24A
102
{ACAD_REACTORS
330
32D
330
32E
102
}
330
71
100
AcDbEntity
  8
0
  6
Continuous
 62
     2
100
AcDbLine
 10
-254.2984594014129
 20
-240.053579664049
 30
0.0
 11
-254.2984594014129
 21
-238.5228087325174
 31
0.0
  0
LINE
  5
24B
102
{ACAD_REACTORS
330
32D
330
32E
102
}
330
71
100
AcDbEntity
  8
0
  6
Continuous
 62
     2
100
AcDbLine
 10
-254.2984594014129
 20
-236.3011492403925
 30
0.0
 11
-254.2984594014129
 21
-235.6971246213319
 31
0.0
  0
LINE
  5
24C
102
{ACAD_REACTORS
330
32D
330
32E
102
}
330
71
100
AcDbEntity
  8
0
  6
Continuous
 62
     2
100
AcDbLine
 10
-256.0900095854991
 20
-235.3814076982557
 30
0.0
 11
-254.6141763244895
 21
-235.3814076982557
 31
0.0
  0
LINE
  5
24D
102
{ACAD_REACTORS
330
32D
330
32E
102
}
330
71
100
AcDbEntity
  8
0
  6
Continuous
 62
     2
100
AcDbLine
 10
-256.4057265085747
 20
-235.6971246213319
 30
0.0
 11
-256.4057265085747
 21
-240.053579664049
 31
0.0
  0
LINE
  5
24E
102
{ACAD_REACTORS
330
333
330
334
102
}
330
71
100
AcDbEntity
  8
0
  6
Continuous
 62
     2
100
AcDbLine
 10
-249.068726065024
 20
-236.7795834253645
 30
0.0
 11
-248.3099584772437
 21
-236.7795834253645
 31
0.0
  0
LINE
  5
24F
102
{ACAD_REACTORS
330
333
330
334
102
}
330
71
100
AcDbEntity
  8
0
  6
Continuous
 62
     2
100
AcDbLine
 10
-250.3092304752781
 20
-234.6688521426972
 30
0.0
 11
-248.3099584772437
 21
-234.6688521426972
 31
0.0
  0
LINE
  5
250
102
{ACAD_REACTORS
330
333
330
334
102
}
330
71
100
AcDbEntity
  8
0
  6
Continuous
 62
     2
100
AcDbLine
 10
-250.3092304752781
 20
-234.6688521426972
 30
0.0
 11
-250.3092304752781
 21
-237.7226616665083
 31
0.0
  0
LINE
  5
251
102
{ACAD_REACTORS
330
333
330
334
102
}
330
71
100
AcDbEntity
  8
0
  6
Continuous
 62
     2
100
AcDbLine
 10
-249.068726065024
 20
-236.0376856374795
 30
0.0
 11
-248.7514310034821
 21
-236.0376856374795
 31
0.0
  0
LINE
  5
252
102
{ACAD_REACTORS
330
333
330
334
102
}
330
71
100
AcDbEntity
  8
0
  6
Continuous
 62
     2
100
AcDbLine
 10
-249.068726065024
 20
-235.3319579881373
 30
0.0
 11
-248.7514310034821
 21
-235.3319579881373
 31
0.0
  0
LINE
  5
253
102
{ACAD_REACTORS
330
341
330
342
102
}
330
71
100
AcDbEntity
  8
0
  6
Continuous
 62
     2
100
AcDbLine
 10
-245.9197533313038
 20
-235.7376854760317
 30
0.0
 11
-244.8700957533963
 21
-235.7376854760317
 31
0.0
  0
LINE
  5
254
102
{ACAD_REACTORS
330
341
330
342
102
}
330
71
100
AcDbEntity
  8
0
  6
Continuous
 62
     2
100
AcDbLine
 10
-245.9197533313038
 20
-234.6688521426972
 30
0.0
 11
-245.9197533313038
 21
-235.7376854760317
 31
0.0
  0
LINE
  5
255
102
{ACAD_REACTORS
330
341
330
342
102
}
330
71
100
AcDbEntity
  8
0
  6
Continuous
 62
     2
100
AcDbLine
 10
-247.1125460334704
 20
-234.6688521426972
 30
0.0
 11
-245.9197533313038
 21
-234.6688521426972
 31
0.0
  0
LINE
  5
256
102
{ACAD_REACTORS
330
341
330
342
102
}
330
71
100
AcDbEntity
  8
0
  6
Continuous
 62
     2
100
AcDbLine
 10
-245.9197533313038
 20
-237.7226616665083
 30
0.0
 11
-247.1125460334704
 21
-237.7226616665083
 31
0.0
  0
LINE
  5
257
102
{ACAD_REACTORS
330
341
330
342
102
}
330
71
100
AcDbEntity
  8
0
  6
Continuous
 62
     2
100
AcDbLine
 10
-244.8700957533963
 20
-237.7226616665083
 30
0.0
 11
-244.8700957533963
 21
-236.5883895576645
 31
0.0
  0
LINE
  5
258
102
{ACAD_REACTORS
330
341
330
342
102
}
330
71
100
AcDbEntity
  8
0
  6
Continuous
 62
     2
100
AcDbLine
 10
-243.6773030512299
 20
-237.7226616665083
 30
0.0
 11
-244.8700957533963
 21
-237.7226616665083
 31
0.0
  0
LINE
  5
259
102
{ACAD_REACTORS
330
341
330
342
102
}
330
71
100
AcDbEntity
  8
0
  6
Continuous
 62
     2
100
AcDbLine
 10
-243.6773030512299
 20
-234.6688521426972
 30
0.0
 11
-243.6773030512299
 21
-237.7226616665083
 31
0.0
  0
LINE
  5
25A
102
{ACAD_REACTORS
330
32F
330
330
102
}
330
71
100
AcDbEntity
  8
0
  6
Continuous
 62
     2
100
AcDbLine
 10
-240.194348360903
 20
-236.5447637073241
 30
0.0
 11
-238.8584205344753
 21
-236.5447637073241
 31
0.0
  0
LINE
  5
25B
102
{ACAD_REACTORS
330
32F
330
330
102
}
330
71
100
AcDbEntity
  8
0
  6
Continuous
 62
     2
100
AcDbLine
 10
-238.8584205344753
 20
-236.5447637073241
 30
0.0
 11
-238.8584205344753
 21
-235.8467501018818
 31
0.0
  0
LINE
  5
25C
102
{ACAD_REACTORS
330
32F
330
330
102
}
330
71
100
AcDbEntity
  8
0
  6
Continuous
 62
     2
100
AcDbLine
 10
-238.8584205344753
 20
-235.8467501018818
 30
0.0
 11
-240.194348360903
 21
-235.8467501018818
 31
0.0
  0
LINE
  5
25D
102
{ACAD_REACTORS
330
32F
330
330
102
}
330
71
100
AcDbEntity
  8
0
  6
Continuous
 62
     2
100
AcDbLine
 10
-240.194348360903
 20
-235.8467501018818
 30
0.0
 11
-240.194348360903
 21
-235.3668657481401
 31
0.0
  0
LINE
  5
25E
102
{ACAD_REACTORS
330
33F
330
340
102
}
330
71
100
AcDbEntity
  8
0
  6
Continuous
 62
     2
100
AcDbLine
 10
-243.8683008144621
 20
-241.0818521426826
 30
0.0
 11
-242.6755081122945
 21
-241.0818521426826
 31
0.0
  0
LINE
  5
25F
102
{ACAD_REACTORS
330
33F
330
340
102
}
330
71
100
AcDbEntity
  8
0
  6
Continuous
 62
     2
100
AcDbLine
 10
-241.4350037020416
 20
-241.0818521426826
 30
0.0
 11
-240.2422109998752
 21
-241.0818521426826
 31
0.0
  0
LINE
  5
260
102
{ACAD_REACTORS
330
33F
330
340
102
}
330
71
100
AcDbEntity
  8
0
  6
Continuous
 62
     2
100
AcDbLine
 10
-242.6755081122945
 20
-238.0280426188716
 30
0.0
 11
-243.8683008144621
 21
-238.0280426188716
 31
0.0
  0
LINE
  5
261
102
{ACAD_REACTORS
330
33F
330
340
102
}
330
71
100
AcDbEntity
  8
0
  6
Continuous
 62
     2
100
AcDbLine
 10
-243.8683008144621
 20
-238.0280426188716
 30
0.0
 11
-243.8683008144621
 21
-241.0818521426826
 31
0.0
  0
LINE
  5
262
102
{ACAD_REACTORS
330
33D
330
33E
102
}
330
71
100
AcDbEntity
  8
0
  6
Continuous
 62
     2
100
AcDbLine
 10
-236.1865648816219
 20
-234.6688521426972
 30
0.0
 11
-236.1865648816219
 21
-235.9776276529023
 31
0.0
  0
LINE
  5
263
102
{ACAD_REACTORS
330
33D
330
33E
102
}
330
71
100
AcDbEntity
  8
0
  6
Continuous
 62
     2
100
AcDbLine
 10
-237.4270692918759
 20
-234.6688521426972
 30
0.0
 11
-238.6198619940424
 21
-234.6688521426972
 31
0.0
  0
LINE
  5
264
102
{ACAD_REACTORS
330
33D
330
33E
102
}
330
71
100
AcDbEntity
  8
0
  6
Continuous
 62
     2
100
AcDbLine
 10
-238.6198619940424
 20
-234.6688521426972
 30
0.0
 11
-238.6198619940424
 21
-237.7226616665083
 31
0.0
  0
LINE
  5
265
102
{ACAD_REACTORS
330
33D
330
33E
102
}
330
71
100
AcDbEntity
  8
0
  6
Continuous
 62
     2
100
AcDbLine
 10
-237.4270692918759
 20
-237.7226616665083
 30
0.0
 11
-237.4270692918759
 21
-236.4138861563037
 31
0.0
  0
LINE
  5
266
102
{ACAD_REACTORS
330
33B
330
33C
102
}
330
71
100
AcDbEntity
  8
0
  6
Continuous
 62
     2
100
AcDbLine
 10
-238.0951841359739
 20
-241.0818521426826
 30
0.0
 11
-238.0951841359739
 21
-238.8133079249951
 31
0.0
  0
LINE
  5
267
102
{ACAD_REACTORS
330
33B
330
33C
102
}
330
71
100
AcDbEntity
  8
0
  6
Continuous
 62
     2
100
AcDbLine
 10
-238.0951841359739
 20
-238.8133079249951
 30
0.0
 11
-237.2840850985014
 21
-238.8133079249951
 31
0.0
  0
LINE
  5
268
102
{ACAD_REACTORS
330
33B
330
33C
102
}
330
71
100
AcDbEntity
  8
0
  6
Continuous
 62
     2
100
AcDbLine
 10
-237.2840850985014
 20
-238.8133079249951
 30
0.0
 11
-237.2840850985014
 21
-238.0280426188716
 31
0.0
  0
LINE
  5
269
102
{ACAD_REACTORS
330
33B
330
33C
102
}
330
71
100
AcDbEntity
  8
0
  6
Continuous
 62
     2
100
AcDbLine
 10
-237.2840850985014
 20
-238.0280426188716
 30
0.0
 11
-240.099075875615
 21
-238.0280426188716
 31
0.0
  0
LINE
  5
26A
102
{ACAD_REACTORS
330
33B
330
33C
102
}
330
71
100
AcDbEntity
  8
0
  6
Continuous
 62
     2
100
AcDbLine
 10
-240.099075875615
 20
-238.8133079249951
 30
0.0
 11
-239.2879768381404
 21
-238.8133079249951
 31
0.0
  0
LINE
  5
26B
102
{ACAD_REACTORS
330
339
330
33A
102
}
330
71
100
AcDbEntity
  8
0
  6
Continuous
 62
     2
100
AcDbLine
 10
-236.489579272704
 20
-240.5408915984648
 30
0.0
 11
-235.3571376960302
 21
-240.5408915984648
 31
0.0
  0
LINE
  5
26C
102
{ACAD_REACTORS
330
339
330
33A
102
}
330
71
100
AcDbEntity
  8
0
  6
Continuous
 62
     2
100
AcDbLine
 10
-233.9051532323005
 20
-241.0818521426826
 30
0.0
 11
-235.1456576425544
 21
-241.0818521426826
 31
0.0
  0
LINE
  5
26D
102
{ACAD_REACTORS
330
339
330
33A
102
}
330
71
100
AcDbEntity
  8
0
  6
Continuous
 62
     2
100
AcDbLine
 10
-236.5436106894935
 20
-238.0280426188716
 30
0.0
 11
-237.9415637364328
 21
-241.0818521426826
 31
0.0
  0
LINE
  5
26E
102
{ACAD_REACTORS
330
339
330
33A
102
}
330
71
100
AcDbEntity
  8
0
  6
Continuous
 62
     2
100
AcDbLine
 10
-236.7010593261798
 20
-241.0818521426826
 30
0.0
 11
-236.489579272704
 21
-240.5408915984648
 31
0.0
  0
LINE
  5
26F
102
{ACAD_REACTORS
330
339
330
33A
102
}
330
71
100
AcDbEntity
  8
0
  6
Continuous
 62
     2
100
AcDbLine
 10
-236.223523721559
 20
-239.8603283331582
 30
0.0
 11
-235.9233584843666
 21
-239.0925133671715
 31
0.0
  0
LINE
  5
270
102
{ACAD_REACTORS
330
337
330
338
102
}
330
71
100
AcDbEntity
  8
0
  6
Continuous
 62
     2
100
AcDbLine
 10
-234.7552136390214
 20
-237.7226616665083
 30
0.0
 11
-234.7552136390214
 21
-234.6688521426972
 31
0.0
  0
LINE
  5
271
102
{ACAD_REACTORS
330
337
330
338
102
}
330
71
100
AcDbEntity
  8
0
  6
Continuous
 62
     2
100
AcDbLine
 10
-233.5147092287685
 20
-234.6688521426972
 30
0.0
 11
-233.5147092287685
 21
-237.7226616665083
 31
0.0
  0
LINE
  5
272
102
{ACAD_REACTORS
330
337
330
338
102
}
330
71
100
AcDbEntity
  8
0
  6
Continuous
 62
     2
100
AcDbLine
 10
-234.7552136390214
 20
-234.6688521426972
 30
0.0
 11
-233.5147092287685
 21
-234.6688521426972
 31
0.0
  0
LINE
  5
273
102
{ACAD_REACTORS
330
335
330
336
102
}
330
71
100
AcDbEntity
  8
0
  6
Continuous
 62
     2
100
AcDbLine
 10
-231.2961148027377
 20
-236.9349298812146
 30
0.0
 11
-230.5995238646722
 21
-237.7226616665083
 31
0.0
  0
LINE
  5
274
102
{ACAD_REACTORS
330
335
330
336
102
}
330
71
100
AcDbEntity
  8
0
  6
Continuous
 62
     2
100
AcDbLine
 10
-230.5995238646722
 20
-237.7226616665083
 30
0.0
 11
-229.1967996469239
 21
-237.7226616665083
 31
0.0
  0
LINE
  5
275
102
{ACAD_REACTORS
330
335
330
336
102
}
330
71
100
AcDbEntity
  8
0
  6
Continuous
 62
     2
100
AcDbLine
 10
-230.5947526938642
 20
-236.1418026727334
 30
0.0
 11
-229.1967996469239
 21
-237.7226616665083
 31
0.0
  0
LINE
  5
276
102
{ACAD_REACTORS
330
335
330
336
102
}
330
71
100
AcDbEntity
  8
0
  6
Continuous
 62
     2
100
AcDbLine
 10
-230.5947526938642
 20
-236.1418026727334
 30
0.0
 11
-229.2922230630977
 21
-234.6688521426972
 31
0.0
  0
LINE
  5
277
102
{ACAD_REACTORS
330
335
330
336
102
}
330
71
100
AcDbEntity
  8
0
  6
Continuous
 62
     2
100
AcDbLine
 10
-231.2961148027377
 20
-235.3486754642526
 30
0.0
 11
-230.6949472808449
 21
-234.6688521426972
 31
0.0
  0
LINE
  5
278
102
{ACAD_REACTORS
330
335
330
336
102
}
330
71
100
AcDbEntity
  8
0
  6
Continuous
 62
     2
100
AcDbLine
 10
-231.8972823246295
 20
-234.6688521426972
 30
0.0
 11
-231.2961148027377
 21
-235.3486754642526
 31
0.0
  0
LINE
  5
279
102
{ACAD_REACTORS
330
335
330
336
102
}
330
71
100
AcDbEntity
  8
0
  6
Continuous
 62
     2
100
AcDbLine
 10
-231.8972823246295
 20
-234.6688521426972
 30
0.0
 11
-233.3000065423788
 21
-234.6688521426972
 31
0.0
  0
LINE
  5
27A
102
{ACAD_REACTORS
330
32B
330
32C
102
}
330
71
100
AcDbEntity
  8
0
  6
Continuous
 62
     2
100
AcDbLine
 10
-231.200691386565
 20
-241.0818521426826
 30
0.0
 11
-230.0078986843973
 21
-241.0818521426826
 31
0.0
  0
LINE
  5
27B
102
{ACAD_REACTORS
330
32B
330
32C
102
}
330
71
100
AcDbEntity
  8
0
  6
Continuous
 62
     2
100
AcDbLine
 10
-230.0078986843973
 20
-241.0818521426826
 30
0.0
 11
-230.0078986843973
 21
-238.8133079249951
 31
0.0
  0
LINE
  5
27C
102
{ACAD_REACTORS
330
32B
330
32C
102
}
330
71
100
AcDbEntity
  8
0
  6
Continuous
 62
     2
100
AcDbLine
 10
-230.0078986843973
 20
-238.8133079249951
 30
0.0
 11
-229.1967996469239
 21
-238.8133079249951
 31
0.0
  0
LINE
  5
27D
102
{ACAD_REACTORS
330
32B
330
32C
102
}
330
71
100
AcDbEntity
  8
0
  6
Continuous
 62
     2
100
AcDbLine
 10
-229.1967996469239
 20
-238.8133079249951
 30
0.0
 11
-229.1967996469239
 21
-238.0280426188716
 31
0.0
  0
LINE
  5
27E
102
{ACAD_REACTORS
330
32B
330
32C
102
}
330
71
100
AcDbEntity
  8
0
  6
Continuous
 62
     2
100
AcDbLine
 10
-232.5817451655526
 20
-238.028042618872
 30
0.0
 11
-229.1967996469239
 21
-238.0280426188716
 31
0.0
  0
LINE
  5
27F
102
{ACAD_REACTORS
330
32B
330
32C
102
}
330
71
100
AcDbEntity
  8
0
  6
Continuous
 62
     2
100
AcDbLine
 10
-231.200691386565
 20
-238.8133079249951
 30
0.0
 11
-231.200691386565
 21
-241.0818521426826
 31
0.0
  0
LINE
  5
280
102
{ACAD_REACTORS
330
32D
330
32E
102
}
330
71
100
AcDbEntity
  8
0
  6
Continuous
 62
     2
100
AcDbLine
 10
-253.8301778220442
 20
-239.1029719931181
 30
0.0
 11
-253.8301778220442
 21
-238.5211205864231
 31
0.0
  0
LINE
  5
281
102
{ACAD_REACTORS
330
32D
330
32E
102
}
330
71
100
AcDbEntity
  8
0
  6
Continuous
 62
     2
100
AcDbLine
 10
-253.8301778220442
 20
-236.3028373864868
 30
0.0
 11
-253.8301778220442
 21
-235.69730209798
 31
0.0
  0
LINE
  5
282
330
71
100
AcDbEntity
  8
1
  6
Continuous
 62
     6
100
AcDbLine
 10
-275.2999992374409
 20
-248.3753521426989
 30
0.0
 11
-261.3448037641909
 21
-248.3753521426991
 31
0.0
  0
LINE
  5
283
330
71
100
AcDbEntity
  8
1
  6
Continuous
 62
     6
100
AcDbLine
 10
-325.2999992374412
 20
-248.3753521426989
 30
0.0
 11
-330.3448037641909
 21
-248.3753521426989
 31
0.0
  0
LINE
  5
284
330
71
100
AcDbEntity
  8
1
  6
Continuous
 62
     6
100
AcDbLine
 10
-175.299999237441
 20
-248.3753521426989
 30
0.0
 11
-131.7999992374409
 21
-248.3753521426989
 31
0.0
  0
LINE
  5
285
330
71
100
AcDbEntity
  8
1
  6
Continuous
 62
     6
100
AcDbLine
 10
-225.299999237441
 20
-248.3753521426989
 30
0.0
 11
-243.144803764191
 21
-248.3753521426989
 31
0.0
  0
LINE
  5
286
330
71
100
AcDbEntity
  8
1
  6
Continuous
 62
     2
100
AcDbLine
 10
-131.7999992374409
 20
-248.3753521426989
 30
0.0
 11
-126.799999237442
 21
-248.3753521426989
 31
0.0
  0
LINE
  5
287
330
71
100
AcDbEntity
  8
1
  6
Continuous
 62
     2
100
AcDbLine
 10
-131.7999992374409
 20
-248.3753521426989
 30
0.0
 11
-131.7999992374409
 21
-253.3753521426991
 31
0.0
  0
LINE
  5
288
330
71
100
AcDbEntity
  8
1
  6
Continuous
 62
     6
100
AcDbLine
 10
-261.3448037641909
 20
-231.3753521426989
 30
0.0
 11
-224.9448037641911
 21
-231.3753521426989
 31
0.0
  0
LINE
  5
289
330
71
100
AcDbEntity
  8
1
  6
Continuous
 62
     2
100
AcDbLine
 10
-126.799999237442
 20
-253.3753521426991
 30
0.0
 11
-126.799999237442
 21
-248.3753521426989
 31
0.0
  0
LINE
  5
28A
330
71
100
AcDbEntity
  8
1
  6
Continuous
 62
     2
100
AcDbLine
 10
-126.799999237442
 20
-253.3753521426991
 30
0.0
 11
-131.7999992374409
 21
-253.3753521426991
 31
0.0
  0
LINE
  5
28B
330
71
100
AcDbEntity
  8
1
  6
Continuous
 62
     2
100
AcDbLine
 10
-131.7999992374409
 20
-253.3753521426991
 30
0.0
 11
-175.299999237441
 21
-253.3753521426991
 31
0.0
  0
LINE
  5
28C
330
71
100
AcDbEntity
  8
1
  6
Continuous
 62
     6
100
AcDbLine
 10
-131.7999992374393
 20
-231.3753521426989
 30
0.0
 11
-131.7999992374401
 21
-198.3753521426988
 31
0.0
  0
LINE
  5
28D
330
71
100
AcDbEntity
  8
1
  6
Continuous
 62
     2
100
AcDbLine
 10
-126.799999237442
 20
-43.37535214269894
 30
0.0
 11
-275.2999992374409
 21
-43.37535214269894
 31
0.0
  0
LINE
  5
28E
330
71
100
AcDbEntity
  8
1
  6
Continuous
 62
     6
100
AcDbLine
 10
-131.799999237442
 20
-63.37535214269894
 30
0.0
 11
-418.79999923744
 21
-63.37535214269894
 31
0.0
  0
LINE
  5
28F
330
71
100
AcDbEntity
  8
1
  6
Continuous
 62
     2
100
AcDbLine
 10
-131.7999992374401
 20
-198.3753521426988
 30
0.0
 11
-126.799999237442
 21
-198.3753521426988
 31
0.0
  0
LINE
  5
290
330
71
100
AcDbEntity
  8
1
  6
Continuous
 62
     6
100
AcDbLine
 10
-131.7999992374401
 20
-198.3753521426988
 30
0.0
 11
-131.7999992374406
 21
-148.375352142699
 31
0.0
  0
LINE
  5
291
330
71
100
AcDbEntity
  8
1
  6
Continuous
 62
     2
100
AcDbLine
 10
-126.799999237442
 20
-198.3753521426988
 30
0.0
 11
-126.799999237442
 21
-148.375352142699
 31
0.0
  0
LINE
  5
292
330
71
100
AcDbEntity
  8
1
  6
Continuous
 62
     2
100
AcDbLine
 10
-131.7999992374406
 20
-148.375352142699
 30
0.0
 11
-126.799999237442
 21
-148.375352142699
 31
0.0
  0
LINE
  5
293
330
71
100
AcDbEntity
  8
1
  6
Continuous
 62
     6
100
AcDbLine
 10
-131.7999992374406
 20
-148.375352142699
 30
0.0
 11
-131.7999992374418
 21
-98.37535214269894
 31
0.0
  0
LINE
  5
294
330
71
100
AcDbEntity
  8
1
  6
Continuous
 62
     2
100
AcDbLine
 10
-126.799999237442
 20
-148.375352142699
 30
0.0
 11
-126.799999237442
 21
-98.37535214269894
 31
0.0
  0
LINE
  5
295
330
71
100
AcDbEntity
  8
1
  6
Continuous
 62
     2
100
AcDbLine
 10
-131.7999992374418
 20
-98.37535214269894
 30
0.0
 11
-126.799999237442
 21
-98.37535214269894
 31
0.0
  0
LINE
  5
296
330
71
100
AcDbEntity
  8
1
  6
Continuous
 62
     6
100
AcDbLine
 10
-131.7999992374418
 20
-98.37535214269894
 30
0.0
 11
-131.799999237442
 21
-63.37535214269894
 31
0.0
  0
LINE
  5
297
330
71
100
AcDbEntity
  8
1
  6
Continuous
 62
     2
100
AcDbLine
 10
-126.799999237442
 20
-98.37535214269894
 30
0.0
 11
-126.799999237442
 21
-43.37535214269894
 31
0.0
  0
LINE
  5
298
330
71
100
AcDbEntity
  8
1
  6
Continuous
 62
     2
100
AcDbLine
 10
-126.799999237442
 20
-248.3753521426989
 30
0.0
 11
-126.799999237442
 21
-198.3753521426988
 31
0.0
  0
LINE
  5
299
330
71
100
AcDbEntity
  8
1
  6
Continuous
 62
     2
100
AcDbLine
 10
-275.2999992374409
 20
-43.37535214269894
 30
0.0
 11
-423.79999923744
 21
-43.37535214269894
 31
0.0
  0
LINE
  5
29A
330
71
100
AcDbEntity
  8
1
  6
Continuous
 62
     2
100
AcDbLine
 10
-275.2999992374409
 20
-43.37535214269894
 30
0.0
 11
-275.2999992374409
 21
-52.58404398740026
 31
0.0
  0
LINE
  5
29B
330
71
100
AcDbEntity
  8
1
  6
Continuous
 62
     2
100
AcDbLine
 10
-423.79999923744
 20
-253.3753521426991
 30
0.0
 11
-418.7999992374391
 21
-253.3753521426991
 31
0.0
  0
LINE
  5
29C
330
71
100
AcDbEntity
  8
1
  6
Continuous
 62
     2
100
AcDbLine
 10
-423.79999923744
 20
-43.37535214269894
 30
0.0
 11
-423.79999923744
 21
-98.37535214269894
 31
0.0
  0
LINE
  5
29D
330
71
100
AcDbEntity
  8
1
  6
Continuous
 62
     6
100
AcDbLine
 10
-418.79999923744
 20
-63.37535214269894
 30
0.0
 11
-418.79999923744
 21
-98.37535214269894
 31
0.0
  0
LINE
  5
29E
330
71
100
AcDbEntity
  8
1
  6
Continuous
 62
     2
100
AcDbLine
 10
-423.79999923744
 20
-98.37535214269894
 30
0.0
 11
-418.79999923744
 21
-98.37535214269894
 31
0.0
  0
LINE
  5
29F
330
71
100
AcDbEntity
  8
1
  6
Continuous
 62
     2
100
AcDbLine
 10
-423.79999923744
 20
-98.37535214269894
 30
0.0
 11
-423.79999923744
 21
-148.375352142699
 31
0.0
  0
LINE
  5
2A0
330
71
100
AcDbEntity
  8
1
  6
Continuous
 62
     6
100
AcDbLine
 10
-418.79999923744
 20
-98.37535214269894
 30
0.0
 11
-418.7999992374395
 21
-148.375352142699
 31
0.0
  0
LINE
  5
2A1
330
71
100
AcDbEntity
  8
1
  6
Continuous
 62
     2
100
AcDbLine
 10
-423.79999923744
 20
-148.375352142699
 30
0.0
 11
-418.7999992374395
 21
-148.375352142699
 31
0.0
  0
LINE
  5
2A2
330
71
100
AcDbEntity
  8
1
  6
Continuous
 62
     2
100
AcDbLine
 10
-423.79999923744
 20
-148.375352142699
 30
0.0
 11
-423.79999923744
 21
-198.3753521426988
 31
0.0
  0
LINE
  5
2A3
330
71
100
AcDbEntity
  8
1
  6
Continuous
 62
     6
100
AcDbLine
 10
-418.7999992374395
 20
-148.375352142699
 30
0.0
 11
-418.7999992374392
 21
-198.3753521426988
 31
0.0
  0
LINE
  5
2A4
330
71
100
AcDbEntity
  8
1
  6
Continuous
 62
     2
100
AcDbLine
 10
-423.79999923744
 20
-198.3753521426988
 30
0.0
 11
-418.7999992374392
 21
-198.3753521426988
 31
0.0
  0
LINE
  5
2A5
330
71
100
AcDbEntity
  8
1
  6
Continuous
 62
     2
100
AcDbLine
 10
-423.79999923744
 20
-198.3753521426988
 30
0.0
 11
-423.79999923744
 21
-248.3753521426989
 31
0.0
  0
LINE
  5
2A6
330
71
100
AcDbEntity
  8
1
  6
Continuous
 62
     6
100
AcDbLine
 10
-418.7999992374392
 20
-198.3753521426988
 30
0.0
 11
-418.7999992374391
 21
-248.3753521426989
 31
0.0
  0
LINE
  5
2A7
330
71
100
AcDbEntity
  8
1
  6
Continuous
 62
     2
100
AcDbLine
 10
-375.2999992374409
 20
-253.3753521426991
 30
0.0
 11
-375.2999992374409
 21
-248.3753521426989
 31
0.0
  0
LINE
  5
2A8
330
71
100
AcDbEntity
  8
1
  6
Continuous
 62
     2
100
AcDbLine
 10
-375.2999992374409
 20
-253.3753521426991
 30
0.0
 11
-325.2999992374412
 21
-253.3753521426991
 31
0.0
  0
LINE
  5
2A9
330
71
100
AcDbEntity
  8
1
  6
Continuous
 62
     2
100
AcDbLine
 10
-325.2999992374412
 20
-253.3753521426991
 30
0.0
 11
-325.2999992374412
 21
-248.3753521426989
 31
0.0
  0
LINE
  5
2AA
330
71
100
AcDbEntity
  8
1
  6
Continuous
 62
     2
100
AcDbLine
 10
-325.2999992374412
 20
-253.3753521426991
 30
0.0
 11
-275.2999992374409
 21
-253.3753521426991
 31
0.0
  0
LINE
  5
2AB
330
71
100
AcDbEntity
  8
1
  6
Continuous
 62
     2
100
AcDbLine
 10
-275.2999992374409
 20
-253.3753521426991
 30
0.0
 11
-275.2999992374409
 21
-248.3753521426989
 31
0.0
  0
LINE
  5
2AC
330
71
100
AcDbEntity
  8
1
  6
Continuous
 62
     2
100
AcDbLine
 10
-275.2999992374409
 20
-253.3753521426991
 30
0.0
 11
-225.299999237441
 21
-253.3753521426991
 31
0.0
  0
LINE
  5
2AD
330
71
100
AcDbEntity
  8
1
  6
Continuous
 62
     2
100
AcDbLine
 10
-225.299999237441
 20
-253.3753521426991
 30
0.0
 11
-225.299999237441
 21
-248.3753521426989
 31
0.0
  0
LINE
  5
2AE
330
71
100
AcDbEntity
  8
1
  6
Continuous
 62
     2
100
AcDbLine
 10
-175.299999237441
 20
-253.3753521426991
 30
0.0
 11
-175.299999237441
 21
-248.3753521426989
 31
0.0
  0
LINE
  5
2AF
330
71
100
AcDbEntity
  8
1
  6
Continuous
 62
     2
100
AcDbLine
 10
-175.299999237441
 20
-253.3753521426991
 30
0.0
 11
-225.299999237441
 21
-253.3753521426991
 31
0.0
  0
LINE
  5
2B0
330
71
100
AcDbEntity
  8
1
  6
Continuous
 62
     2
100
AcDbLine
 10
-418.7999992374391
 20
-248.3753521426989
 30
0.0
 11
-418.7999992374391
 21
-253.3753521426991
 31
0.0
  0
LINE
  5
2B1
330
71
100
AcDbEntity
  8
1
  6
Continuous
 62
     2
100
AcDbLine
 10
-418.7999992374391
 20
-253.3753521426991
 30
0.0
 11
-375.2999992374409
 21
-253.3753521426991
 31
0.0
  0
LINE
  5
2B2
330
71
100
AcDbEntity
  8
1
  6
Continuous
 62
     2
100
AcDbLine
 10
-418.7999992374391
 20
-248.3753521426989
 30
0.0
 11
-423.79999923744
 21
-248.3753521426989
 31
0.0
  0
LINE
  5
2B3
330
71
100
AcDbEntity
  8
1
  6
Continuous
 62
     2
100
AcDbLine
 10
-423.79999923744
 20
-248.3753521426989
 30
0.0
 11
-423.79999923744
 21
-253.3753521426991
 31
0.0
  0
LINE
  5
2B4
330
71
100
AcDbEntity
  8
1
  6
Continuous
 62
     6
100
AcDbLine
 10
-131.7999992374409
 20
-248.3753521426989
 30
0.0
 11
-131.7999992374397
 21
-239.8753521426989
 31
0.0
  0
LINE
  5
2B5
330
71
100
AcDbEntity
  8
1
  6
Continuous
 62
     6
100
AcDbLine
 10
-224.9448037641911
 20
-248.3753521426991
 30
0.0
 11
-175.299999237441
 21
-248.3753521426989
 31
0.0
  0
LINE
  5
2B6
330
71
100
AcDbEntity
  8
1
  6
Continuous
 62
     6
100
AcDbLine
 10
-377.5999992374412
 20
-248.3753521426991
 30
0.0
 11
-375.2999992374409
 21
-248.3753521426989
 31
0.0
  0
LINE
  5
2B7
330
71
100
AcDbEntity
  8
1
  6
Continuous
 62
     6
100
AcDbLine
 10
-275.2999992374409
 20
-248.3753521426989
 30
0.0
 11
-325.2999992374412
 21
-248.3753521426989
 31
0.0
  0
LINE
  5
2B8
330
71
100
AcDbEntity
  8
1
  6
Continuous
 62
     7
100
AcDbLine
 10
-261.3448037641909
 20
-231.3753521426989
 30
0.0
 11
-261.3448037641909
 21
-244.1253521426991
 31
0.0
  0
LINE
  5
2B9
330
71
100
AcDbEntity
  8
1
  6
Continuous
 62
     7
100
AcDbLine
 10
-224.9448037641911
 20
-231.3753521426989
 30
0.0
 11
-224.9448037641911
 21
-244.1253521426989
 31
0.0
  0
LINE
  5
2BA
330
71
100
AcDbEntity
  8
1
  6
Continuous
 62
     6
100
AcDbLine
 10
-377.5999992374412
 20
-248.3753521426991
 30
0.0
 11
-383.7999992374392
 21
-248.3753521426989
 31
0.0
  0
LINE
  5
2BB
330
71
100
AcDbEntity
  8
1
  6
Continuous
 62
     6
100
AcDbLine
 10
-224.9448037641911
 20
-248.3753521426991
 30
0.0
 11
-225.299999237441
 21
-248.3753521426989
 31
0.0
  0
LINE
  5
2BC
330
71
100
AcDbEntity
  8
1
  6
Continuous
 62
     6
100
AcDbLine
 10
-131.7999992374393
 20
-231.3753521426989
 30
0.0
 11
-131.7999992374397
 21
-239.8753521426989
 31
0.0
  0
LINE
  5
2BD
330
71
100
AcDbEntity
  8
1
  6
Continuous
 62
     6
100
AcDbLine
 10
-383.7999992374392
 20
-248.3753521426989
 30
0.0
 11
-418.7999992374391
 21
-248.3753521426989
 31
0.0
  0
LINE
  5
2BE
330
71
100
AcDbEntity
  8
1
  6
Continuous
 62
     2
100
AcDbLine
 10
-257.1081488776284
 20
-226.000352142699
 30
0.0
 11
-252.1081488776284
 21
-224.750352142699
 31
0.0
  0
LINE
  5
2BF
330
71
100
AcDbEntity
  8
1
  6
Continuous
 62
     2
100
AcDbLine
 10
-257.1081488776284
 20
-228.500352142699
 30
0.0
 11
-257.1081488776284
 21
-226.000352142699
 31
0.0
  0
LINE
  5
2C0
330
71
100
AcDbEntity
  8
1
  6
Continuous
 62
     2
100
AcDbLine
 10
-252.1081488776284
 20
-229.750352142699
 30
0.0
 11
-257.1081488776284
 21
-228.500352142699
 31
0.0
  0
LINE
  5
2C1
330
71
100
AcDbEntity
  8
1
  6
Continuous
 62
     2
100
AcDbLine
 10
-252.1081488776284
 20
-224.750352142699
 30
0.0
 11
-252.1081488776284
 21
-229.750352142699
 31
0.0
  0
LINE
  5
2C2
330
71
100
AcDbEntity
  8
1
  6
Continuous
 62
     7
100
AcDbLine
 10
-261.3448037641909
 20
-244.1253521426991
 30
0.0
 11
-243.144803764191
 21
-244.1253521426989
 31
0.0
  0
LINE
  5
2C3
330
71
100
AcDbEntity
  8
1
  6
Continuous
 62
     7
100
AcDbLine
 10
-261.3448037641909
 20
-244.1253521426991
 30
0.0
 11
-261.3448037641909
 21
-248.3753521426991
 31
0.0
  0
LINE
  5
2C4
330
71
100
AcDbEntity
  8
1
  6
Continuous
 62
     7
100
AcDbLine
 10
-224.9448037641911
 20
-244.1253521426989
 30
0.0
 11
-224.9448037641911
 21
-248.3753521426991
 31
0.0
  0
LINE
  5
2C5
330
71
100
AcDbEntity
  8
1
  6
Continuous
 62
     7
100
AcDbLine
 10
-243.144803764191
 20
-244.1253521426989
 30
0.0
 11
-243.144803764191
 21
-248.3753521426989
 31
0.0
  0
LINE
  5
2C6
330
71
100
AcDbEntity
  8
1
  6
Continuous
 62
     6
100
AcDbLine
 10
-243.144803764191
 20
-248.3753521426989
 30
0.0
 11
-261.3448037641909
 21
-248.3753521426991
 31
0.0
  0
LINE
  5
2C7
330
71
100
AcDbEntity
  8
1
  6
Continuous
 62
     7
100
AcDbLine
 10
-243.144803764191
 20
-244.1253521426989
 30
0.0
 11
-224.9448037641911
 21
-244.1253521426989
 31
0.0
  0
LINE
  5
2C8
330
71
100
AcDbEntity
  8
1
  6
Continuous
 62
     6
100
AcDbLine
 10
-261.3448037641909
 20
-222.8753521426989
 30
0.0
 11
-131.7999992374393
 21
-222.8753521426989
 31
0.0
  0
ARC
  5
2C9
102
{ACAD_REACTORS
330
331
330
332
102
}
330
71
100
AcDbEntity
  8
0
  6
Continuous
 62
     2
100
AcDbCircle
 10
-245.953155765231
 20
-239.5549473807774
 30
0.0
 40
0.7717997786796198
100
AcDbArc
 50
321.8795802028454
 51
38.12041979715458
  0
ARC
  5
2CA
102
{ACAD_REACTORS
330
331
330
332
102
}
330
71
100
AcDbEntity
  8
0
  6
Continuous
 62
     2
100
AcDbCircle
 10
-245.7534157288846
 20
-239.7116785588974
 30
0.0
 40
0.5179085730137051
100
AcDbArc
 50
218.1204197971838
 51
321.8795802028065
  0
ARC
  5
2CB
102
{ACAD_REACTORS
330
331
330
332
102
}
330
71
100
AcDbEntity
  8
0
  6
Continuous
 62
     2
100
AcDbCircle
 10
-245.5536756925385
 20
-239.5549473807774
 30
0.0
 40
0.7717997786794856
100
AcDbArc
 50
141.8795802028376
 51
218.1204197971624
  0
ARC
  5
2CC
102
{ACAD_REACTORS
330
331
330
332
102
}
330
71
100
AcDbEntity
  8
0
  6
Continuous
 62
     2
100
AcDbCircle
 10
-245.7534157288846
 20
-239.3982162026568
 30
0.0
 40
0.5179085730132249
100
AcDbArc
 50
38.12041979714156
 51
141.8795802028682
  0
ARC
  5
2CD
102
{ACAD_REACTORS
330
329
330
32A
102
}
330
71
100
AcDbEntity
  8
0
  6
Continuous
 62
     2
100
AcDbCircle
 10
-248.8154298644485
 20
-240.9654137461855
 30
0.0
 40
2.227384008973492
100
AcDbArc
 50
58.0690910500401
 51
71.55192388186583
  0
ARC
  5
2CE
102
{ACAD_REACTORS
330
329
330
32A
102
}
330
71
100
AcDbEntity
  8
0
  6
Continuous
 62
     2
100
AcDbCircle
 10
-248.5537021634897
 20
-239.3498759514384
 30
0.0
 40
0.5115800601949674
100
AcDbArc
 50
113.3722778881983
 51
151.4785267423044
  0
ARC
  5
2CF
102
{ACAD_REACTORS
330
329
330
32A
102
}
330
71
100
AcDbEntity
  8
0
  6
Continuous
 62
     2
100
AcDbCircle
 10
-248.1763449054094
 20
-239.5549473807774
 30
0.0
 40
0.9410597353332545
100
AcDbArc
 50
151.4785267422669
 51
208.5214732577012
  0
ARC
  5
2D0
102
{ACAD_REACTORS
330
329
330
32A
102
}
330
71
100
AcDbEntity
  8
0
  6
Continuous
 62
     2
100
AcDbCircle
 10
-248.9733027395414
 20
-236.242266435521
 30
0.0
 40
4.852596863498053
100
AcDbArc
 50
275.158144769625
 51
285.9799912583529
  0
ARC
  5
2D1
102
{ACAD_REACTORS
330
329
330
32A
102
}
330
71
100
AcDbEntity
  8
0
  6
Continuous
 62
     2
100
AcDbCircle
 10
-248.6844466448055
 20
-239.4421570187425
 30
0.0
 40
1.639695123939437
100
AcDbArc
 50
195.0618917770922
 51
275.1581447696395
  0
ARC
  5
2D2
102
{ACAD_REACTORS
330
329
330
32A
102
}
330
71
100
AcDbEntity
  8
0
  6
Continuous
 62
     2
100
AcDbCircle
 10
-249.1035744882683
 20
-239.5549473807774
 30
0.0
 40
1.205656168390994
100
AcDbArc
 50
164.9381082228729
 51
195.0618917770945
  0
ARC
  5
2D3
102
{ACAD_REACTORS
330
329
330
32A
102
}
330
71
100
AcDbEntity
  8
0
  6
Continuous
 62
     2
100
AcDbCircle
 10
-248.6844466448055
 20
-239.6677377428123
 30
0.0
 40
1.639695123940507
100
AcDbArc
 50
84.84185523036236
 51
164.9381082228838
  0
ARC
  5
2D4
102
{ACAD_REACTORS
330
32D
330
32E
102
}
330
71
100
AcDbEntity
  8
0
  6
Continuous
 62
     2
100
AcDbCircle
 10
-253.5144608989674
 20
-238.5211205864231
 30
0.0
 40
0.315716923076622
100
AcDbArc
 50
115.3740086783499
 51
180.0
  0
ARC
  5
2D5
102
{ACAD_REACTORS
330
32D
330
32E
102
}
330
71
100
AcDbEntity
  8
0
  6
Continuous
 62
     2
100
AcDbCircle
 10
-253.5144608989674
 20
-236.3028373864868
 30
0.0
 40
0.315716923076792
100
AcDbArc
 50
180.0
 51
244.6259913216501
  0
ARC
  5
2D6
102
{ACAD_REACTORS
330
32D
330
32E
102
}
330
71
100
AcDbEntity
  8
0
  6
Continuous
 62
     2
100
AcDbCircle
 10
-253.5088447636574
 20
-237.4001370455491
 30
0.0
 40
2.018561131933379
100
AcDbArc
 50
269.8110329575866
 51
90.18896704241334
  0
ARC
  5
2D7
102
{ACAD_REACTORS
330
32D
330
32E
102
}
330
71
100
AcDbEntity
  8
0
  6
Continuous
 62
     2
100
AcDbCircle
 10
-253.5144608989674
 20
-239.1029719931181
 30
0.0
 40
0.315716923076792
100
AcDbArc
 50
180.0
 51
269.8110329574542
  0
ARC
  5
2D8
102
{ACAD_REACTORS
330
32B
330
32C
102
}
330
71
100
AcDbEntity
  8
0
  6
Continuous
 62
     2
100
AcDbCircle
 10
-232.4510006842368
 20
-239.3498759514384
 30
0.0
 40
0.5115800601944143
100
AcDbArc
 50
109.3371432194853
 51
151.4785267424225
  0
ARC
  5
2D9
102
{ACAD_REACTORS
330
32B
330
32C
102
}
330
71
100
AcDbEntity
  8
0
  6
Continuous
 62
     2
100
AcDbCircle
 10
-232.4510006842368
 20
-239.7600188101158
 30
0.0
 40
0.5115800601960623
100
AcDbArc
 50
208.521473257695
 51
246.6277221118436
  0
ARC
  5
2DA
102
{ACAD_REACTORS
330
32B
330
32C
102
}
330
71
100
AcDbEntity
  8
0
  6
Continuous
 62
     2
100
AcDbCircle
 10
-233.0008730090142
 20
-239.5549473807774
 30
0.0
 40
1.205656168392997
100
AcDbArc
 50
164.9381082228985
 51
195.061891777091
  0
ARC
  5
2DB
102
{ACAD_REACTORS
330
32B
330
32C
102
}
330
71
100
AcDbEntity
  8
0
  6
Continuous
 62
     2
100
AcDbCircle
 10
-232.5817451655526
 20
-239.6677377428123
 30
0.0
 40
1.639695123940299
100
AcDbArc
 50
90.0
 51
164.9381082228918
  0
ARC
  5
2DC
102
{ACAD_REACTORS
330
32F
330
330
102
}
330
71
100
AcDbEntity
  8
0
  6
Continuous
 62
     2
100
AcDbCircle
 10
-242.0087402582563
 20
-236.195756904603
 30
0.0
 40
1.526904761905797
100
AcDbArc
 50
90.0
 51
270.0
  0
ARC
  5
2DD
102
{ACAD_REACTORS
330
333
330
334
102
}
330
71
100
AcDbEntity
  8
0
  6
Continuous
 62
     2
100
AcDbCircle
 10
-248.7514310034821
 20
-235.6848218128083
 30
0.0
 40
0.3528638246712035
100
AcDbArc
 50
270.0
 51
90.0
  0
ARC
  5
2DE
102
{ACAD_REACTORS
330
32D
330
32E
102
}
330
71
100
AcDbEntity
  8
0
  6
Continuous
 62
     2
100
AcDbCircle
 10
-256.0900095854991
 20
-235.6971246213319
 30
0.0
 40
0.3157169230761951
100
AcDbArc
 50
90.0
 51
180.0
  0
ARC
  5
2DF
102
{ACAD_REACTORS
330
32D
330
32E
102
}
330
71
100
AcDbEntity
  8
0
  6
Continuous
 62
     2
100
AcDbCircle
 10
-254.0915918769145
 20
-237.4119789864546
 30
0.0
 40
0.9118975235576268
100
AcDbArc
 50
115.1944106485298
 51
244.8055893514884
  0
ARC
  5
2E0
102
{ACAD_REACTORS
330
32D
330
32E
102
}
330
71
100
AcDbEntity
  8
0
  6
Continuous
 62
     2
100
AcDbCircle
 10
-254.6141763244895
 20
-238.5228087325174
 30
0.0
 40
0.315716923076593
100
AcDbArc
 50
0.0
 51
64.80558935145369
  0
ARC
  5
2E1
102
{ACAD_REACTORS
330
32D
330
32E
102
}
330
71
100
AcDbEntity
  8
0
  6
Continuous
 62
     2
100
AcDbCircle
 10
-256.6839042622456
 20
-240.6576075272994
 30
0.0
 40
0.4242446153828041
100
AcDbArc
 50
180.0
 51
270.0
  0
ARC
  5
2E2
102
{ACAD_REACTORS
330
32F
330
330
102
}
330
71
100
AcDbEntity
  8
0
  6
Continuous
 62
     2
100
AcDbCircle
 10
-241.7924682480911
 20
-236.0390257264826
 30
0.0
 40
0.5179085730135266
100
AcDbArc
 50
38.12041979714334
 51
141.8795802028489
  0
ARC
  5
2E3
102
{ACAD_REACTORS
330
32F
330
330
102
}
330
71
100
AcDbEntity
  8
0
  6
Continuous
 62
     2
100
AcDbCircle
 10
-241.5927282117448
 20
-236.195756904603
 30
0.0
 40
0.7717997786796198
100
AcDbArc
 50
141.8795802028454
 51
218.1204197971612
  0
ARC
  5
2E4
102
{ACAD_REACTORS
330
331
330
332
102
}
330
71
100
AcDbEntity
  8
0
  6
Continuous
 62
     2
100
AcDbCircle
 10
-245.7534157288846
 20
-239.016372370474
 30
0.0
 40
2.065479772208623
100
AcDbArc
 50
242.451851824341
 51
297.5481481756856
  0
ARC
  5
2E5
102
{ACAD_REACTORS
330
331
330
332
102
}
330
71
100
AcDbEntity
  8
0
  6
Continuous
 62
     2
100
AcDbCircle
 10
-245.7534157288846
 20
-240.0935223910801
 30
0.0
 40
2.065479772208492
100
AcDbArc
 50
62.45185182430527
 51
117.5481481756682
  0
ARC
  5
2E6
102
{ACAD_REACTORS
330
331
330
332
102
}
330
71
100
AcDbEntity
  8
0
  6
Continuous
 62
     2
100
AcDbCircle
 10
-246.0343556207179
 20
-239.5549473807774
 30
0.0
 40
1.458034083651503
100
AcDbArc
 50
117.5481481756634
 51
242.4518518243366
  0
ARC
  5
2E7
102
{ACAD_REACTORS
330
331
330
332
102
}
330
71
100
AcDbEntity
  8
0
  6
Continuous
 62
     2
100
AcDbCircle
 10
-245.4724758370513
 20
-239.5549473807774
 30
0.0
 40
1.458034083652003
100
AcDbArc
 50
297.548148175701
 51
62.45185182429896
  0
ARC
  5
2E8
102
{ACAD_REACTORS
330
32F
330
330
102
}
330
71
100
AcDbEntity
  8
0
  6
Continuous
 62
     2
100
AcDbCircle
 10
-241.7924682480911
 20
-236.3524880827235
 30
0.0
 40
0.5179085730134372
100
AcDbArc
 50
218.1204197971511
 51
321.8795802028566
  0
ARC
  5
2E9
102
{ACAD_REACTORS
330
32F
330
330
102
}
330
71
100
AcDbEntity
  8
0
  6
Continuous
 62
     2
100
AcDbCircle
 10
-241.9922082844373
 20
-236.195756904603
 30
0.0
 40
0.7717997786797123
100
AcDbArc
 50
321.8795802028401
 51
38.12041979715329
  0
ARC
  5
2EA
102
{ACAD_REACTORS
330
32D
330
32E
102
}
330
71
100
AcDbEntity
  8
0
  6
Continuous
 62
     2
100
AcDbCircle
 10
-251.2105921715288
 20
-240.6576075272994
 30
0.0
 40
0.424244615383202
100
AcDbArc
 50
270.0
 51
0.0
  0
ARC
  5
2EB
102
{ACAD_REACTORS
330
32D
330
32E
102
}
330
71
100
AcDbEntity
  8
0
  6
Continuous
 62
     2
100
AcDbCircle
 10
-251.2105921715288
 20
-235.0930967580991
 30
0.0
 40
0.4242446153838841
100
AcDbArc
 50
0.0
 51
90.0
  0
ARC
  5
2EC
102
{ACAD_REACTORS
330
32D
330
32E
102
}
330
71
100
AcDbEntity
  8
0
  6
Continuous
 62
     2
100
AcDbCircle
 10
-256.6839042622456
 20
-235.0930967580991
 30
0.0
 40
0.4242446153837989
100
AcDbArc
 50
90.0
 51
180.0
  0
ARC
  5
2ED
102
{ACAD_REACTORS
330
32D
330
32E
102
}
330
71
100
AcDbEntity
  8
0
  6
Continuous
 62
     2
100
AcDbCircle
 10
-254.6141763244895
 20
-240.053579664049
 30
0.0
 40
0.315716923076792
100
AcDbArc
 50
270.0
 51
0.0
  0
ARC
  5
2EE
102
{ACAD_REACTORS
330
32D
330
32E
102
}
330
71
100
AcDbEntity
  8
0
  6
Continuous
 62
     2
100
AcDbCircle
 10
-254.6141763244895
 20
-236.3011492403925
 30
0.0
 40
0.3157169230760431
100
AcDbArc
 50
295.1944106485464
 51
0.0
  0
ARC
  5
2EF
102
{ACAD_REACTORS
330
32D
330
32E
102
}
330
71
100
AcDbEntity
  8
0
  6
Continuous
 62
     2
100
AcDbCircle
 10
-254.6141763244895
 20
-235.6971246213319
 30
0.0
 40
0.315716923076593
100
AcDbArc
 50
0.0
 51
90.0
  0
ARC
  5
2F0
102
{ACAD_REACTORS
330
32D
330
32E
102
}
330
71
100
AcDbEntity
  8
0
  6
Continuous
 62
     2
100
AcDbCircle
 10
-256.0900095854991
 20
-240.053579664049
 30
0.0
 40
0.3157169230755699
100
AcDbArc
 50
180.0
 51
270.0
  0
ARC
  5
2F1
102
{ACAD_REACTORS
330
333
330
334
102
}
330
71
100
AcDbEntity
  8
0
  6
Continuous
 62
     2
100
AcDbCircle
 10
-248.3099584772437
 20
-235.7242177840308
 30
0.0
 40
1.055365641333708
100
AcDbArc
 50
270.0
 51
90.0
  0
ARC
  5
2F2
102
{ACAD_REACTORS
330
32B
330
32C
102
}
330
71
100
AcDbEntity
  8
0
  6
Continuous
 62
     2
100
AcDbCircle
 10
-232.5817451655526
 20
-239.4421570187425
 30
0.0
 40
1.639695123940413
100
AcDbArc
 50
195.0618917771005
 51
275.1581447696762
  0
ARC
  5
2F3
102
{ACAD_REACTORS
330
32B
330
32C
102
}
330
71
100
AcDbEntity
  8
0
  6
Continuous
 62
     2
100
AcDbCircle
 10
-232.8706012602884
 20
-236.242266435521
 30
0.0
 40
4.852596863498738
100
AcDbArc
 50
275.1581447696361
 51
285.9799912583383
  0
ARC
  5
2F4
102
{ACAD_REACTORS
330
32B
330
32C
102
}
330
71
100
AcDbEntity
  8
0
  6
Continuous
 62
     2
100
AcDbCircle
 10
-232.7127283851956
 20
-238.1444810153693
 30
0.0
 40
2.227384008972665
100
AcDbArc
 50
288.4480761181342
 51
301.9309089499403
  0
ARC
  5
2F5
102
{ACAD_REACTORS
330
32B
330
32C
102
}
330
71
100
AcDbEntity
  8
0
  6
Continuous
 62
     2
100
AcDbCircle
 10
-232.2945606515337
 20
-239.3980267914058
 30
0.0
 40
0.9059297849852539
100
AcDbArc
 50
246.6277221118175
 51
288.4480761180817
  0
ARC
  5
2F6
102
{ACAD_REACTORS
330
32B
330
32C
102
}
330
71
100
AcDbEntity
  8
0
  6
Continuous
 62
     2
100
AcDbCircle
 10
-232.0736434261554
 20
-239.5549473807774
 30
0.0
 40
0.9410597353348924
100
AcDbArc
 50
151.4785267423624
 51
208.5214732576695
  0
ARC
  5
2F7
102
{ACAD_REACTORS
330
32B
330
32C
102
}
330
71
100
AcDbEntity
  8
0
  6
Continuous
 62
     2
100
AcDbCircle
 10
-232.3043306861331
 20
-239.7678309318212
 30
0.0
 40
0.9545230068261219
100
AcDbArc
 50
90.0
 51
109.3371432194321
  0
ARC
  5
2F8
102
{ACAD_REACTORS
330
32D
330
32E
102
}
330
71
100
AcDbEntity
  8
0
  6
Continuous
 62
     2
100
AcDbCircle
 10
-253.5144608989674
 20
-235.69730209798
 30
0.0
 40
0.3157169230760711
100
AcDbArc
 50
90.18896704254594
 51
180.0
  0
ARC
  5
2F9
102
{ACAD_REACTORS
330
32D
330
32E
102
}
330
71
100
AcDbEntity
  8
0
  6
Continuous
 62
     2
100
AcDbCircle
 10
-254.0405035970553
 20
-237.4119789864546
 30
0.0
 40
0.911848150144459
100
AcDbArc
 50
295.3740086781764
 51
64.62599132180516
  0
ARC
  5
2FA
102
{ACAD_REACTORS
330
329
330
32A
102
}
330
71
100
AcDbEntity
  8
0
  6
Continuous
 62
     2
100
AcDbCircle
 10
-248.8154298644485
 20
-238.1444810153687
 30
0.0
 40
2.227384008972665
100
AcDbArc
 50
288.4480761181342
 51
301.9309089499599
  0
ARC
  5
2FB
102
{ACAD_REACTORS
330
329
330
32A
102
}
330
71
100
AcDbEntity
  8
0
  6
Continuous
 62
     2
100
AcDbCircle
 10
-248.3972621307877
 20
-239.3980267914058
 30
0.0
 40
0.9059297849848931
100
AcDbArc
 50
246.6277221118703
 51
288.4480761181601
  0
ARC
  5
2FC
102
{ACAD_REACTORS
330
329
330
32A
102
}
330
71
100
AcDbEntity
  8
0
  6
Continuous
 62
     2
100
AcDbCircle
 10
-248.5537021634897
 20
-239.7600188101158
 30
0.0
 40
0.5115800601948034
100
AcDbArc
 50
208.5214732576956
 51
246.6277221118232
  0
ARC
  5
2FD
102
{ACAD_REACTORS
330
329
330
32A
102
}
330
71
100
AcDbEntity
  8
0
  6
Continuous
 62
     2
100
AcDbCircle
 10
-248.3972621307877
 20
-239.7118679701489
 30
0.0
 40
0.905929784985224
100
AcDbArc
 50
71.55192388184949
 51
113.3722778881297
  0
ARC
  5
2FE
102
{ACAD_REACTORS
330
329
330
32A
102
}
330
71
100
AcDbEntity
  8
0
  6
Continuous
 62
     2
100
AcDbCircle
 10
-248.9733027395414
 20
-242.8676283260332
 30
0.0
 40
4.852596863497986
100
AcDbArc
 50
74.0200087416471
 51
84.84185523037496
  0
CIRCLE
  5
2FF
102
{ACAD_REACTORS
330
32D
330
32E
102
}
330
71
100
AcDbEntity
  8
0
  6
Continuous
 62
     2
100
AcDbCircle
 10
-254.0643186117281
 20
-237.4119789864546
 30
0.0
 40
0.4709789327785074
  0
CIRCLE
  5
300
330
71
100
AcDbEntity
  8
1
  6
Continuous
 62
     2
100
AcDbCircle
 10
-248.6081488776284
 20
-227.250352142699
 30
0.0
 40
1.249999999999886
  0
CIRCLE
  5
301
330
71
100
AcDbEntity
  8
1
  6
Continuous
 62
     2
100
AcDbCircle
 10
-248.6081488776284
 20
-227.250352142699
 30
0.0
 40
2.5
  0
TEXT
  5
302
330
71
100
AcDbEntity
  8
1
 62
     7
100
AcDbText
 10
-205.9712560421772
 20
-230.0753521426991
 30
0.0
 40
2.5
  1
/
 41
0.9
  7
CONVERTER_11
100
AcDbText
  0
TEXT
  5
304
330
71
100
AcDbEntity
  8
1
 62
     7
100
AcDbText
 10
-203.8148915451352
 20
-230.0753521426991
 30
0.0
 40
2.5
  1
02
 41
0.81
  7
CONVERTER_12
100
AcDbText
  0
TEXT
  5
305
330
71
100
AcDbEntity
  8
1
 62
     3
100
AcDbText
 10
-166.2184075191181
 20
-230.0753521426991
 30
0.0
 40
2.5
  1
13.04.2018
 41
0.81
  7
CONVERTER_12
100
AcDbText
  0
MTEXT
  5
306
330
71
100
AcDbEntity
  8
1
 62
     2
100
AcDbMText
 10
-166.2184075191181
 20
-223.875352142699
 30
0.0
 40
1.8
 41
0.0
 71
     1
 72
     1
  1
date
  7
CONVERTER_11
 73
     1
 44
1.32052821128451
  0
MTEXT
  5
307
330
71
100
AcDbEntity
  8
1
 62
     2
100
AcDbMText
 10
-196.044803764191
 20
-232.375352142699
 30
0.0
 40
1.8
 41
0.0
 71
     1
 72
     1
  1
document-type
  7
CONVERTER_11
 73
     1
 44
1.20048019207683
  0
TEXT
  5
308
330
71
100
AcDbEntity
  8
1
 62
     3
100
AcDbText
 10
-196.044803764191
 20
-238.5753521426991
 30
0.0
 40
2.5
  1
 
 41
0.81
  7
CONVERTER_12
100
AcDbText
  0
MTEXT
  5
30A
330
71
100
AcDbEntity
  8
1
 62
     2
100
AcDbMText
 10
-223.844803764191
 20
-223.8753521426989
 30
0.0
 40
1.8
 41
0.0
 71
     1
 72
     1
  1
document-No. / RI
  7
CONVERTER_13
 73
     1
 44
1.32052821128451
  0
TEXT
  5
30B
330
71
100
AcDbEntity
  8
1
 62
     7
100
AcDbText
 10
-223.844803764191
 20
-230.0753521426991
 30
0.0
 40
2.5
  1
01025800
 41
0.81
  7
CONVERTER_12
100
AcDbText
  0
MTEXT
  5
30D
330
71
100
AcDbEntity
  8
1
 62
     3
100
AcDbMText
 10
-136.2592033782786
 20
-230.0753521426989
 30
0.0
 40
2.5
 41
0.0
 71
     8
 72
     1
  1
2:1
  7
CONVERTER_14
 73
     1
 44
1.32052821128451
  0
MTEXT
  5
30E
330
71
100
AcDbEntity
  8
1
 62
     2
100
AcDbMText
 10
-139.6184075191183
 20
-223.8753521426989
 30
0.0
 40
1.8
 41
0.0
 71
     1
 72
     1
  1
scale
  7
CONVERTER_11
 73
     1
 44
1.20048019207683
  0
MTEXT
  5
30F
330
71
100
AcDbEntity
  8
1
 62
     2
100
AcDbMText
 10
-223.844803764191
 20
-232.3753521426989
 30
0.0
 40
1.8
 41
0.0
 71
     1
 72
     1
  1
ident.-No.
  7
CONVERTER_11
 73
     1
 44
1.20048019207683
  0
TEXT
  5
310
330
71
100
AcDbEntity
  8
1
 62
     7
100
AcDbText
 10
-223.4448037641913
 20
-238.5753521426991
 30
0.0
 40
2.5
  1
0424013
 41
0.81
  7
CONVERTER_12
100
AcDbText
  0
MTEXT
  5
311
330
71
100
AcDbEntity
  8
1
 62
     2
100
AcDbMText
 10
-295.7828184892385
 20
-235.625352142699
 30
0.0
 40
2.0
 41
0.0
 71
     5
 72
     1
  1
General Information\P- Simplified representation\P- Document excluded from change process\P- Linear dimensions [mm]
  7
CONVERTER_11
 73
     1
 44
1.20048019207683
  0
MTEXT
  5
312
330
71
100
AcDbEntity
  8
1
 62
     7
100
AcDbMText
 10
-129.299999237442
 20
-173.375352142697
 30
0.0
 40
3.5
 41
0.0
 71
     5
 72
     1
  1
C
  7
CONVERTER_11
 73
     1
 44
1.20048019207683
  0
MTEXT
  5
313
330
71
100
AcDbEntity
  8
1
 62
     7
100
AcDbMText
 10
-129.299999237442
 20
-70.87535214269894
 30
0.0
 40
3.5
 41
0.0
 71
     5
 72
     1
  1
A
  7
CONVERTER_11
 73
     1
 44
1.20048019207683
  0
MTEXT
  5
314
330
71
100
AcDbEntity
  8
1
 62
     7
100
AcDbMText
 10
-129.299999237442
 20
-123.375352142697
 30
0.0
 40
3.5
 41
0.0
 71
     5
 72
     1
  1
B
  7
CONVERTER_11
 73
     1
 44
1.20048019207683
  0
MTEXT
  5
315
330
71
100
AcDbEntity
  8
1
 62
     7
100
AcDbMText
 10
-129.299999237442
 20
-225.8753521426989
 30
0.0
 40
3.5
 41
0.0
 71
     5
 72
     1
  1
D
  7
CONVERTER_11
 73
     1
 44
1.20048019207683
  0
MTEXT
  5
316
330
71
100
AcDbEntity
  8
1
 62
     7
100
AcDbMText
 10
-399.5499992374406
 20
-250.8753521426991
 30
0.0
 40
3.5
 41
0.0
 71
     5
 72
     1
  1
1
  7
CONVERTER_11
 73
     1
 44
1.20048019207683
  0
MTEXT
  5
317
330
71
100
AcDbEntity
  8
1
 62
     7
100
AcDbMText
 10
-350.2999992374409
 20
-250.8753521426991
 30
0.0
 40
3.5
 41
0.0
 71
     5
 72
     1
  1
2
  7
CONVERTER_11
 73
     1
 44
1.20048019207683
  0
MTEXT
  5
318
330
71
100
AcDbEntity
  8
1
 62
     7
100
AcDbMText
 10
-300.2999992374409
 20
-250.8753521426991
 30
0.0
 40
3.5
 41
0.0
 71
     5
 72
     1
  1
3
  7
CONVERTER_11
 73
     1
 44
1.20048019207683
  0
MTEXT
  5
319
330
71
100
AcDbEntity
  8
1
 62
     7
100
AcDbMText
 10
-250.2999992374411
 20
-250.8753521426991
 30
0.0
 40
3.5
 41
0.0
 71
     5
 72
     1
  1
4
  7
CONVERTER_11
 73
     1
 44
1.20048019207683
  0
MTEXT
  5
31A
330
71
100
AcDbEntity
  8
1
 62
     7
100
AcDbMText
 10
-200.299999237441
 20
-250.8753521426991
 30
0.0
 40
3.5
 41
0.0
 71
     5
 72
     1
  1
5
  7
CONVERTER_11
 73
     1
 44
1.20048019207683
  0
MTEXT
  5
31B
330
71
100
AcDbEntity
  8
1
 62
     7
100
AcDbMText
 10
-151.0499992374418
 20
-250.8753521426991
 30
0.0
 40
3.5
 41
0.0
 71
     5
 72
     1
  1
6
  7
CONVERTER_11
 73
     1
 44
1.20048019207683
  0
MTEXT
  5
31C
330
71
100
AcDbEntity
  8
1
 62
     7
100
AcDbMText
 10
-421.29999923744
 20
-70.87535214269894
 30
0.0
 40
3.5
 41
0.0
 71
     5
 72
     1
  1
A
  7
CONVERTER_11
 73
     1
 44
1.20048019207683
  0
MTEXT
  5
31D
330
71
100
AcDbEntity
  8
1
 62
     7
100
AcDbMText
 10
-421.29999923744
 20
-123.3753521426989
 30
0.0
 40
3.5
 41
0.0
 71
     5
 72
     1
  1
B
  7
CONVERTER_11
 73
     1
 44
1.20048019207683
  0
MTEXT
  5
31E
330
71
100
AcDbEntity
  8
1
 62
     7
100
AcDbMText
 10
-421.29999923744
 20
-173.3753521426989
 30
0.0
 40
3.5
 41
0.0
 71
     5
 72
     1
  1
C
  7
CONVERTER_11
 73
     1
 44
1.20048019207683
  0
MTEXT
  5
31F
330
71
100
AcDbEntity
  8
1
 62
     7
100
AcDbMText
 10
-421.29999923744
 20
-225.8753521426989
 30
0.0
 40
3.5
 41
0.0
 71
     5
 72
     1
  1
D
  7
CONVERTER_11
 73
     1
 44
1.20048019207683
  0
MTEXT
  5
320
330
71
100
AcDbEntity
  8
1
 62
     3
100
AcDbMText
 10
-235.1448037641911
 20
-227.2503521426989
 30
0.0
 40
2.5
 41
0.0
 71
     5
 72
     1
  1
DIN A4
  7
CONVERTER_11
 73
     1
 44
1.20048019207683
  0
MTEXT
  5
321
330
71
100
AcDbEntity
  8
1
 62
     2
100
AcDbMText
 10
-223.9448037641911
 20
-240.8753521426989
 30
0.0
 40
1.8
 41
0.0
 71
     1
 72
     1
  1
description
  7
CONVERTER_11
 73
     1
 44
1.20048019207683
  0
MTEXT
  5
322
330
71
100
AcDbEntity
  8
1
 62
     7
100
AcDbMText
 10
-178.3724015008155
 20
-245.1253521426987
 30
0.0
 40
3.0
 41
0.0
 71
     5
 72
     1
  1
AKG 35 BU
  7
CONVERTER_12
 73
     1
 44
1.20048019207683
  0
TEXT
  5
323
330
71
100
AcDbEntity
  8
1
 62
     2
100
AcDbText
 10
-236.9094949543775
 20
-247.1253521426991
 30
0.0
 40
1.8
  1
1
 41
0.9
  7
CONVERTER_11
100
AcDbText
  0
TEXT
  5
324
330
71
100
AcDbEntity
  8
1
 62
     2
100
AcDbText
 10
-251.698538793849
 20
-247.174600796501
 30
0.0
 40
1.8
  1
1
 41
0.9
  7
CONVERTER_11
100
AcDbText
  0
TEXT
  5
325
330
71
100
AcDbEntity
  8
1
 62
     2
100
AcDbText
 10
-260.3448037641909
 20
-247.1343693576906
 30
0.0
 40
1.8
  1
page
 41
0.9
  7
CONVERTER_11
100
AcDbText
  0
TEXT
  5
326
330
71
100
AcDbEntity
  8
1
 62
     2
100
AcDbText
 10
-242.1448037641912
 20
-247.1343693576906
 30
0.0
 40
1.8
  1
of
 41
0.9
  7
CONVERTER_11
100
AcDbText
  0
MTEXT
  5
327
330
71
100
AcDbEntity
  8
1
 62
     3
100
AcDbMText
 10
-235.9418216125811
 20
-61.58404398740015
 30
0.0
 40
1.8
 41
0.0
 71
     7
 72
     1
  3
Transfer or duplication of this document as well as the utilisation or\Pcommunication of its content are not permitted unless express consent\Pis granted. Violations give rise to claims for damages. All rights reserved\Pin case of patent, utility mo
  1
del or design patent registrations.
  7
CONVERTER_11
 73
     1
 44
0.99639855942377
  0
MTEXT
  5
328
330
71
100
AcDbEntity
  8
1
 62
     3
100
AcDbMText
 10
-418.7949314513692
 20
-61.58404398740015
 30
0.0
 40
1.8
 41
0.0
 71
     7
 72
     1
  3
Weitergabe sowie Vervielf\U+00e4ltigung dieses Dokuments, Verwertung und \PMitteilung seines Inhalts sind verboten, soweit nicht ausdr\U+00fccklich gestattet. \PZuwiderhandlungen verpflichten zu Schadenersatz. Alle Rechte f\U+00fcr den Fall\Pder Pat
  1
ent-, Gebrauchsmuster- oder Designeintragung vorbehalten.
  7
CONVERTER_11
 73
     1
 44
0.99639855942377
  0
HATCH
  5
329
330
71
100
AcDbEntity
  8
1
  6
Continuous
 62
     2
100
AcDbHatch
 10
0.0
 20
0.0
 30
0.0
210
0.0
220
0.0
230
1.0
  2
_USER
 70
     0
 71
     1
 91
        1
 92
        1
 93
       14
 72
     2
 10
-249.1035744882683
 20
-239.5549473807774
 40
1.205656168390994
 50
164.9381082228729
 51
195.0618917770945
 73
     1
 72
     2
 10
-248.6844466448055
 20
-239.4421570187425
 40
1.639695123939437
 50
195.0618917770922
 51
275.1581447696395
 73
     1
 72
     2
 10
-248.9733027395414
 20
-236.242266435521
 40
4.852596863498053
 50
275.158144769625
 51
285.9799912583529
 73
     1
 72
     1
 10
-247.6373748224236
 20
-240.9073487413218
 11
-247.6373748224236
 21
-240.0348317345186
 72
     2
 10
-248.8154298644485
 20
-238.1444810153687
 40
2.227384008972665
 50
58.06909105004009
 51
71.5519238818658
 73
     0
 72
     2
 10
-248.3972621307877
 20
-239.3980267914058
 40
0.9059297849848931
 50
71.55192388183985
 51
113.3722778881297
 73
     0
 72
     2
 10
-248.5537021634897
 20
-239.7600188101158
 40
0.5115800601948034
 50
113.3722778881768
 51
151.4785267423044
 73
     0
 72
     2
 10
-248.1763449054094
 20
-239.5549473807774
 40
0.9410597353332545
 50
151.4785267422988
 51
208.5214732577331
 73
     0
 72
     2
 10
-248.5537021634897
 20
-239.3498759514384
 40
0.5115800601949674
 50
208.5214732576956
 51
246.6277221118017
 73
     0
 72
     2
 10
-248.3972621307877
 20
-239.7118679701489
 40
0.905929784985224
 50
246.6277221118703
 51
288.4480761181505
 73
     0
 72
     2
 10
-248.8154298644485
 20
-240.9654137461855
 40
2.227384008973492
 50
288.4480761181342
 51
301.9309089499599
 73
     0
 72
     1
 10
-247.6373748224236
 20
-239.0750630270356
 11
-247.6373748224236
 21
-238.2025460202324
 72
     2
 10
-248.9733027395414
 20
-242.8676283260332
 40
4.852596863497986
 50
74.0200087416471
 51
84.84185523037496
 73
     1
 72
     2
 10
-248.6844466448055
 20
-239.6677377428123
 40
1.639695123940507
 50
84.84185523036236
 51
164.9381082228838
 73
     1
 97
       14
330
2FE
330
217
330
2CD
330
2FD
330
2CE
330
2CF
330
2FC
330
2FB
330
2FA
330
218
330
2D0
330
2D1
330
2D2
330
2D3
 75
     1
 76
     0
 52
45.0
 41
0.1
 77
     0
 78
     1
 53
45.0
 43
0.0
 44
0.0
 45
-0.0707106781186548
 46
0.0707106781186548
 79
     0
 98
        1
 10
0.0
 20
0.0
  0
HATCH
  5
32A
330
71
100
AcDbEntity
  8
1
  6
Continuous
 62
     2
100
AcDbHatch
 10
0.0
 20
0.0
 30
0.0
210
0.0
220
0.0
230
1.0
  2
_USER
 70
     0
 71
     1
 91
        1
 92
        1
 93
       14
 72
     2
 10
-249.1035744882683
 20
-239.5549473807774
 40
1.205656168390994
 50
164.9381082228729
 51
195.0618917770945
 73
     1
 72
     2
 10
-248.6844466448055
 20
-239.4421570187425
 40
1.639695123939437
 50
195.0618917770922
 51
275.1581447696395
 73
     1
 72
     2
 10
-248.9733027395414
 20
-236.242266435521
 40
4.852596863498053
 50
275.158144769625
 51
285.9799912583529
 73
     1
 72
     1
 10
-247.6373748224236
 20
-240.9073487413218
 11
-247.6373748224236
 21
-240.0348317345186
 72
     2
 10
-248.8154298644485
 20
-238.1444810153687
 40
2.227384008972665
 50
58.06909105004009
 51
71.5519238818658
 73
     0
 72
     2
 10
-248.3972621307877
 20
-239.3980267914058
 40
0.9059297849848931
 50
71.55192388183985
 51
113.3722778881297
 73
     0
 72
     2
 10
-248.5537021634897
 20
-239.7600188101158
 40
0.5115800601948034
 50
113.3722778881768
 51
151.4785267423044
 73
     0
 72
     2
 10
-248.1763449054094
 20
-239.5549473807774
 40
0.9410597353332545
 50
151.4785267422988
 51
208.5214732577331
 73
     0
 72
     2
 10
-248.5537021634897
 20
-239.3498759514384
 40
0.5115800601949674
 50
208.5214732576956
 51
246.6277221118017
 73
     0
 72
     2
 10
-248.3972621307877
 20
-239.7118679701489
 40
0.905929784985224
 50
246.6277221118703
 51
288.4480761181505
 73
     0
 72
     2
 10
-248.8154298644485
 20
-240.9654137461855
 40
2.227384008973492
 50
288.4480761181342
 51
301.9309089499599
 73
     0
 72
     1
 10
-247.6373748224236
 20
-239.0750630270356
 11
-247.6373748224236
 21
-238.2025460202324
 72
     2
 10
-248.9733027395414
 20
-242.8676283260332
 40
4.852596863497986
 50
74.0200087416471
 51
84.84185523037496
 73
     1
 72
     2
 10
-248.6844466448055
 20
-239.6677377428123
 40
1.639695123940507
 50
84.84185523036236
 51
164.9381082228838
 73
     1
 97
       14
330
2FE
330
217
330
2CD
330
2FD
330
2CE
330
2CF
330
2FC
330
2FB
330
2FA
330
218
330
2D0
330
2D1
330
2D2
330
2D3
 75
     1
 76
     0
 52
45.0
 41
0.1
 77
     0
 78
     1
 53
45.0
 43
0.0
 44
0.0
 45
-0.0707106781186548
 46
0.0707106781186548
 79
     0
 98
        1
 10
0.0
 20
0.0
  0
HATCH
  5
32B
330
71
100
AcDbEntity
  8
1
  6
Continuous
 62
     2
100
AcDbHatch
 10
0.0
 20
0.0
 30
0.0
210
0.0
220
0.0
230
1.0
  2
_USER
 70
     0
 71
     1
 91
        1
 92
        1
 93
       18
 72
     2
 10
-232.5817451655526
 20
-239.6677377428123
 40
1.639695123940299
 50
90.0
 51
164.9381082228918
 73
     1
 72
     2
 10
-233.0008730090142
 20
-239.5549473807774
 40
1.205656168392997
 50
164.9381082228985
 51
195.061891777091
 73
     1
 72
     2
 10
-232.5817451655526
 20
-239.4421570187425
 40
1.639695123940413
 50
195.0618917771005
 51
275.1581447696762
 73
     1
 72
     2
 10
-232.8706012602884
 20
-236.242266435521
 40
4.852596863498738
 50
275.1581447696361
 51
285.9799912583383
 73
     1
 72
     1
 10
-231.5346733431717
 20
-240.9073487413224
 11
-231.5346733431717
 21
-240.034831734519
 72
     2
 10
-232.7127283851956
 20
-238.1444810153693
 40
2.227384008972665
 50
58.06909105005974
 51
71.5519238818658
 73
     0
 72
     2
 10
-232.2945606515337
 20
-239.3980267914058
 40
0.9059297849852539
 50
71.55192388191827
 51
113.3722778881825
 73
     0
 72
     2
 10
-232.4510006842368
 20
-239.7600188101158
 40
0.5115800601960623
 50
113.3722778881563
 51
151.478526742305
 73
     0
 72
     2
 10
-232.0736434261554
 20
-239.5549473807774
 40
0.9410597353348924
 50
151.4785267423305
 51
208.5214732576376
 73
     0
 72
     2
 10
-232.4510006842368
 20
-239.3498759514384
 40
0.5115800601944143
 50
208.5214732575775
 51
250.6628567805147
 73
     0
 72
     2
 10
-232.3043306861331
 20
-239.7678309318212
 40
0.9545230068261219
 50
250.6628567805679
 51
270.0
 73
     0
 72
     1
 10
-232.3043306861331
 20
-238.8133079249951
 11
-231.200691386565
 21
-238.8133079249951
 72
     1
 10
-231.200691386565
 20
-238.8133079249951
 11
-231.200691386565
 21
-241.0818521426826
 72
     1
 10
-231.200691386565
 20
-241.0818521426826
 11
-230.0078986843973
 21
-241.0818521426826
 72
     1
 10
-230.0078986843973
 20
-241.0818521426826
 11
-230.0078986843973
 21
-238.8133079249951
 72
     1
 10
-230.0078986843973
 20
-238.8133079249951
 11
-229.1967996469239
 21
-238.8133079249951
 72
     1
 10
-229.1967996469239
 20
-238.8133079249951
 11
-229.1967996469239
 21
-238.0280426188716
 72
     1
 10
-229.1967996469239
 20
-238.0280426188716
 11
-232.5817451655526
 21
-238.028042618872
 97
       18
330
27D
330
27C
330
27B
330
27A
330
27F
330
219
330
2F7
330
2D8
330
2F6
330
2D9
330
2F5
330
2F4
330
21A
330
2F3
330
2F2
330
2DA
330
2DB
330
27E
 75
     1
 76
     0
 52
45.0
 41
0.1
 77
     0
 78
     1
 53
45.0
 43
0.0
 44
0.0
 45
-0.0707106781186548
 46
0.0707106781186548
 79
     0
 98
        1
 10
0.0
 20
0.0
  0
HATCH
  5
32C
330
71
100
AcDbEntity
  8
1
  6
Continuous
 62
     2
100
AcDbHatch
 10
0.0
 20
0.0
 30
0.0
210
0.0
220
0.0
230
1.0
  2
_USER
 70
     0
 71
     1
 91
        1
 92
        1
 93
       18
 72
     2
 10
-232.5817451655526
 20
-239.6677377428123
 40
1.639695123940299
 50
90.0
 51
164.9381082228918
 73
     1
 72
     2
 10
-233.0008730090142
 20
-239.5549473807774
 40
1.205656168392997
 50
164.9381082228985
 51
195.061891777091
 73
     1
 72
     2
 10
-232.5817451655526
 20
-239.4421570187425
 40
1.639695123940413
 50
195.0618917771005
 51
275.1581447696762
 73
     1
 72
     2
 10
-232.8706012602884
 20
-236.242266435521
 40
4.852596863498738
 50
275.1581447696361
 51
285.9799912583383
 73
     1
 72
     1
 10
-231.5346733431717
 20
-240.9073487413224
 11
-231.5346733431717
 21
-240.034831734519
 72
     2
 10
-232.7127283851956
 20
-238.1444810153693
 40
2.227384008972665
 50
58.06909105005974
 51
71.5519238818658
 73
     0
 72
     2
 10
-232.2945606515337
 20
-239.3980267914058
 40
0.9059297849852539
 50
71.55192388191827
 51
113.3722778881825
 73
     0
 72
     2
 10
-232.4510006842368
 20
-239.7600188101158
 40
0.5115800601960623
 50
113.3722778881563
 51
151.478526742305
 73
     0
 72
     2
 10
-232.0736434261554
 20
-239.5549473807774
 40
0.9410597353348924
 50
151.4785267423305
 51
208.5214732576376
 73
     0
 72
     2
 10
-232.4510006842368
 20
-239.3498759514384
 40
0.5115800601944143
 50
208.5214732575775
 51
250.6628567805147
 73
     0
 72
     2
 10
-232.3043306861331
 20
-239.7678309318212
 40
0.9545230068261219
 50
250.6628567805679
 51
270.0
 73
     0
 72
     1
 10
-232.3043306861331
 20
-238.8133079249951
 11
-231.200691386565
 21
-238.8133079249951
 72
     1
 10
-231.200691386565
 20
-238.8133079249951
 11
-231.200691386565
 21
-241.0818521426826
 72
     1
 10
-231.200691386565
 20
-241.0818521426826
 11
-230.0078986843973
 21
-241.0818521426826
 72
     1
 10
-230.0078986843973
 20
-241.0818521426826
 11
-230.0078986843973
 21
-238.8133079249951
 72
     1
 10
-230.0078986843973
 20
-238.8133079249951
 11
-229.1967996469239
 21
-238.8133079249951
 72
     1
 10
-229.1967996469239
 20
-238.8133079249951
 11
-229.1967996469239
 21
-238.0280426188716
 72
     1
 10
-229.1967996469239
 20
-238.0280426188716
 11
-232.5817451655526
 21
-238.028042618872
 97
       18
330
27D
330
27C
330
27B
330
27A
330
27F
330
219
330
2F7
330
2D8
330
2F6
330
2D9
330
2F5
330
2F4
330
21A
330
2F3
330
2F2
330
2DA
330
2DB
330
27E
 75
     1
 76
     0
 52
45.0
 41
0.1
 77
     0
 78
     1
 53
45.0
 43
0.0
 44
0.0
 45
-0.0707106781186548
 46
0.0707106781186548
 79
     0
 98
        1
 10
0.0
 20
0.0
  0
HATCH
  5
32D
330
71
100
AcDbEntity
  8
1
  6
Continuous
 62
     2
100
AcDbHatch
 10
0.0
 20
0.0
 30
0.0
210
0.0
220
0.0
230
1.0
  2
_USER
 70
     0
 71
     1
 91
        4
 92
        1
 93
        8
 72
     2
 10
-256.6839042622456
 20
-235.0930967580991
 40
0.4242446153837989
 50
90.0
 51
180.0
 73
     1
 72
     1
 10
-257.1081488776284
 20
-235.0930967580991
 11
-257.1081488776284
 21
-240.6576075272994
 72
     2
 10
-256.6839042622456
 20
-240.6576075272994
 40
0.4242446153828041
 50
180.0
 51
270.0
 73
     1
 72
     1
 10
-256.6839042622456
 20
-241.0818521426826
 11
-251.2105921715288
 21
-241.0818521426826
 72
     2
 10
-251.2105921715288
 20
-240.6576075272994
 40
0.424244615383202
 50
270.0
 51
360.0
 73
     1
 72
     1
 10
-250.7863475561449
 20
-240.6576075272994
 11
-250.7863475561449
 21
-235.0930967580991
 72
     2
 10
-251.2105921715288
 20
-235.0930967580991
 40
0.4242446153838841
 50
0.0
 51
90.0
 73
     1
 72
     1
 10
-251.2105921715288
 20
-234.6688521427153
 11
-256.6839042622456
 21
-234.6688521427153
 97
        8
330
2EB
330
248
330
2EA
330
249
330
2E1
330
246
330
2EC
330
247
 92
       16
 93
        1
 72
     2
 10
-254.0643186117281
 20
-237.4119789864546
 40
0.4709789327785074
 50
0.0
 51
360.0
 73
     1
 97
        1
330
2FF
 92
       16
 93
        8
 72
     2
 10
-254.0405035970553
 20
-237.4119789864546
 40
0.911848150144459
 50
295.3740086781764
 51
424.6259913218051
 73
     1
 72
     2
 10
-253.5144608989674
 20
-236.3028373864868
 40
0.315716923076792
 50
115.3740086783499
 51
180.0
 73
     0
 72
     1
 10
-253.8301778220442
 20
-236.3028373864868
 11
-253.8301778220442
 21
-235.69730209798
 72
     2
 10
-253.5144608989674
 20
-235.69730209798
 40
0.3157169230760711
 50
180.0
 51
269.8110329574541
 73
     0
 72
     2
 10
-253.5088447636574
 20
-237.4001370455491
 40
2.018561131933379
 50
269.8110329575866
 51
450.1889670424133
 73
     0
 72
     2
 10
-253.5144608989674
 20
-239.1029719931181
 40
0.315716923076792
 50
90.1889670425458
 51
180.0
 73
     0
 72
     1
 10
-253.8301778220442
 20
-239.1029719931181
 11
-253.8301778220442
 21
-238.5211205864231
 72
     2
 10
-253.5144608989674
 20
-238.5211205864231
 40
0.315716923076622
 50
180.0
 51
244.6259913216501
 73
     0
 97
        8
330
2F9
330
2D5
330
281
330
2F8
330
2D6
330
2D7
330
280
330
2D4
 92
       16
 93
       12
 72
     1
 10
-256.0900095854991
 20
-240.3692965871258
 11
-254.6141763244895
 21
-240.3692965871258
 72
     2
 10
-254.6141763244895
 20
-240.053579664049
 40
0.315716923076792
 50
270.0
 51
360.0
 73
     1
 72
     1
 10
-254.2984594014129
 20
-240.053579664049
 11
-254.2984594014129
 21
-238.5228087325174
 72
     2
 10
-254.6141763244895
 20
-238.5228087325174
 40
0.315716923076593
 50
0.0
 51
64.80558935145369
 73
     1
 72
     2
 10
-254.0915918769145
 20
-237.4119789864546
 40
0.9118975235576268
 50
115.1944106485116
 51
244.8055893514702
 73
     0
 72
     2
 10
-254.6141763244895
 20
-236.3011492403925
 40
0.3157169230760431
 50
295.1944106485464
 51
360.0
 73
     1
 72
     1
 10
-254.2984594014129
 20
-236.3011492403925
 11
-254.2984594014129
 21
-235.6971246213319
 72
     2
 10
-254.6141763244895
 20
-235.6971246213319
 40
0.315716923076593
 50
0.0
 51
90.0
 73
     1
 72
     1
 10
-254.6141763244895
 20
-235.3814076982557
 11
-256.0900095854991
 21
-235.3814076982557
 72
     2
 10
-256.0900095854991
 20
-235.6971246213319
 40
0.3157169230761951
 50
90.0
 51
180.0
 73
     1
 72
     1
 10
-256.4057265085747
 20
-235.6971246213319
 11
-256.4057265085747
 21
-240.053579664049
 72
     2
 10
-256.0900095854991
 20
-240.053579664049
 40
0.3157169230755699
 50
180.0
 51
270.0
 73
     1
 97
       12
330
24D
330
2DE
330
24C
330
2EF
330
24B
330
2EE
330
2DF
330
2E0
330
24A
330
2ED
330
245
330
2F0
 75
     1
 76
     0
 52
45.0
 41
0.1
 77
     0
 78
     1
 53
45.0
 43
0.0
 44
0.0
 45
-0.0707106781186548
 46
0.0707106781186548
 79
     0
 98
        1
 10
0.0
 20
0.0
  0
HATCH
  5
32E
330
71
100
AcDbEntity
  8
1
  6
Continuous
 62
     2
100
AcDbHatch
 10
0.0
 20
0.0
 30
0.0
210
0.0
220
0.0
230
1.0
  2
_USER
 70
     0
 71
     1
 91
        4
 92
        1
 93
        8
 72
     2
 10
-256.6839042622456
 20
-235.0930967580991
 40
0.4242446153837989
 50
90.0
 51
180.0
 73
     1
 72
     1
 10
-257.1081488776284
 20
-235.0930967580991
 11
-257.1081488776284
 21
-240.6576075272994
 72
     2
 10
-256.6839042622456
 20
-240.6576075272994
 40
0.4242446153828041
 50
180.0
 51
270.0
 73
     1
 72
     1
 10
-256.6839042622456
 20
-241.0818521426826
 11
-251.2105921715288
 21
-241.0818521426826
 72
     2
 10
-251.2105921715288
 20
-240.6576075272994
 40
0.424244615383202
 50
270.0
 51
360.0
 73
     1
 72
     1
 10
-250.7863475561449
 20
-240.6576075272994
 11
-250.7863475561449
 21
-235.0930967580991
 72
     2
 10
-251.2105921715288
 20
-235.0930967580991
 40
0.4242446153838841
 50
0.0
 51
90.0
 73
     1
 72
     1
 10
-251.2105921715288
 20
-234.6688521427153
 11
-256.6839042622456
 21
-234.6688521427153
 97
        8
330
2EB
330
248
330
2EA
330
249
330
2E1
330
246
330
2EC
330
247
 92
       16
 93
        1
 72
     2
 10
-254.0643186117281
 20
-237.4119789864546
 40
0.4709789327785074
 50
0.0
 51
360.0
 73
     1
 97
        1
330
2FF
 92
       16
 93
        8
 72
     2
 10
-254.0405035970553
 20
-237.4119789864546
 40
0.911848150144459
 50
295.3740086781764
 51
424.6259913218051
 73
     1
 72
     2
 10
-253.5144608989674
 20
-236.3028373864868
 40
0.315716923076792
 50
115.3740086783499
 51
180.0
 73
     0
 72
     1
 10
-253.8301778220442
 20
-236.3028373864868
 11
-253.8301778220442
 21
-235.69730209798
 72
     2
 10
-253.5144608989674
 20
-235.69730209798
 40
0.3157169230760711
 50
180.0
 51
269.8110329574541
 73
     0
 72
     2
 10
-253.5088447636574
 20
-237.4001370455491
 40
2.018561131933379
 50
269.8110329575866
 51
450.1889670424133
 73
     0
 72
     2
 10
-253.5144608989674
 20
-239.1029719931181
 40
0.315716923076792
 50
90.1889670425458
 51
180.0
 73
     0
 72
     1
 10
-253.8301778220442
 20
-239.1029719931181
 11
-253.8301778220442
 21
-238.5211205864231
 72
     2
 10
-253.5144608989674
 20
-238.5211205864231
 40
0.315716923076622
 50
180.0
 51
244.6259913216501
 73
     0
 97
        8
330
2F9
330
2D5
330
281
330
2F8
330
2D6
330
2D7
330
280
330
2D4
 92
       16
 93
       12
 72
     1
 10
-256.0900095854991
 20
-240.3692965871258
 11
-254.6141763244895
 21
-240.3692965871258
 72
     2
 10
-254.6141763244895
 20
-240.053579664049
 40
0.315716923076792
 50
270.0
 51
360.0
 73
     1
 72
     1
 10
-254.2984594014129
 20
-240.053579664049
 11
-254.2984594014129
 21
-238.5228087325174
 72
     2
 10
-254.6141763244895
 20
-238.5228087325174
 40
0.315716923076593
 50
0.0
 51
64.80558935145369
 73
     1
 72
     2
 10
-254.0915918769145
 20
-237.4119789864546
 40
0.9118975235576268
 50
115.1944106485116
 51
244.8055893514702
 73
     0
 72
     2
 10
-254.6141763244895
 20
-236.3011492403925
 40
0.3157169230760431
 50
295.1944106485464
 51
360.0
 73
     1
 72
     1
 10
-254.2984594014129
 20
-236.3011492403925
 11
-254.2984594014129
 21
-235.6971246213319
 72
     2
 10
-254.6141763244895
 20
-235.6971246213319
 40
0.315716923076593
 50
0.0
 51
90.0
 73
     1
 72
     1
 10
-254.6141763244895
 20
-235.3814076982557
 11
-256.0900095854991
 21
-235.3814076982557
 72
     2
 10
-256.0900095854991
 20
-235.6971246213319
 40
0.3157169230761951
 50
90.0
 51
180.0
 73
     1
 72
     1
 10
-256.4057265085747
 20
-235.6971246213319
 11
-256.4057265085747
 21
-240.053579664049
 72
     2
 10
-256.0900095854991
 20
-240.053579664049
 40
0.3157169230755699
 50
180.0
 51
270.0
 73
     1
 97
       12
330
24D
330
2DE
330
24C
330
2EF
330
24B
330
2EE
330
2DF
330
2E0
330
24A
330
2ED
330
245
330
2F0
 75
     1
 76
     0
 52
45.0
 41
0.1
 77
     0
 78
     1
 53
45.0
 43
0.0
 44
0.0
 45
-0.0707106781186548
 46
0.0707106781186548
 79
     0
 98
        1
 10
0.0
 20
0.0
  0
HATCH
  5
32F
330
71
100
AcDbEntity
  8
1
  6
Continuous
 62
     2
100
AcDbHatch
 10
0.0
 20
0.0
 30
0.0
210
0.0
220
0.0
230
1.0
  2
_USER
 70
     0
 71
     1
 91
        2
 92
        1
 93
       12
 72
     2
 10
-242.0087402582563
 20
-236.195756904603
 40
1.526904761905797
 50
90.0
 51
270.0
 73
     1
 72
     1
 10
-242.0087402582563
 20
-237.7226616665083
 11
-238.8584205344753
 21
-237.7226616665083
 72
     1
 10
-238.8584205344753
 20
-237.7226616665083
 11
-238.8584205344753
 21
-237.0246480610659
 72
     1
 10
-238.8584205344753
 20
-237.0246480610659
 11
-240.194348360903
 21
-237.0246480610659
 72
     1
 10
-240.194348360903
 20
-237.0246480610659
 11
-240.194348360903
 21
-236.5447637073241
 72
     1
 10
-240.194348360903
 20
-236.5447637073241
 11
-238.8584205344753
 21
-236.5447637073241
 72
     1
 10
-238.8584205344753
 20
-236.5447637073241
 11
-238.8584205344753
 21
-235.8467501018818
 72
     1
 10
-238.8584205344753
 20
-235.8467501018818
 11
-240.194348360903
 21
-235.8467501018818
 72
     1
 10
-240.194348360903
 20
-235.8467501018818
 11
-240.194348360903
 21
-235.3668657481401
 72
     1
 10
-240.194348360903
 20
-235.3668657481401
 11
-238.8584205344753
 21
-235.3668657481401
 72
     1
 10
-238.8584205344753
 20
-235.3668657481401
 11
-238.8584205344753
 21
-234.6688521426972
 72
     1
 10
-238.8584205344753
 20
-234.6688521426972
 11
-242.0087402582563
 21
-234.6688521426972
 97
       12
330
23C
330
236
330
25D
330
25C
330
25B
330
25A
330
237
330
238
330
239
330
23A
330
2DC
330
23B
 92
       16
 93
        4
 72
     2
 10
-241.5927282117448
 20
-236.195756904603
 40
0.7717997786796198
 50
141.8795802028454
 51
218.1204197971612
 73
     1
 72
     2
 10
-241.7924682480911
 20
-236.3524880827235
 40
0.5179085730134372
 50
218.1204197971511
 51
321.8795802028566
 73
     1
 72
     2
 10
-241.9922082844373
 20
-236.195756904603
 40
0.7717997786797123
 50
321.8795802028401
 51
398.1204197971533
 73
     1
 72
     2
 10
-241.7924682480911
 20
-236.0390257264826
 40
0.5179085730135266
 50
38.12041979714334
 51
141.8795802028489
 73
     1
 97
        4
330
2E9
330
2E8
330
2E3
330
2E2
 75
     1
 76
     0
 52
45.0
 41
0.1
 77
     0
 78
     1
 53
45.0
 43
0.0
 44
0.0
 45
-0.0707106781186548
 46
0.0707106781186548
 79
     0
 98
        1
 10
0.0
 20
0.0
  0
HATCH
  5
330
330
71
100
AcDbEntity
  8
1
  6
Continuous
 62
     2
100
AcDbHatch
 10
0.0
 20
0.0
 30
0.0
210
0.0
220
0.0
230
1.0
  2
_USER
 70
     0
 71
     1
 91
        2
 92
        1
 93
       12
 72
     2
 10
-242.0087402582563
 20
-236.195756904603
 40
1.526904761905797
 50
90.0
 51
270.0
 73
     1
 72
     1
 10
-242.0087402582563
 20
-237.7226616665083
 11
-238.8584205344753
 21
-237.7226616665083
 72
     1
 10
-238.8584205344753
 20
-237.7226616665083
 11
-238.8584205344753
 21
-237.0246480610659
 72
     1
 10
-238.8584205344753
 20
-237.0246480610659
 11
-240.194348360903
 21
-237.0246480610659
 72
     1
 10
-240.194348360903
 20
-237.0246480610659
 11
-240.194348360903
 21
-236.5447637073241
 72
     1
 10
-240.194348360903
 20
-236.5447637073241
 11
-238.8584205344753
 21
-236.5447637073241
 72
     1
 10
-238.8584205344753
 20
-236.5447637073241
 11
-238.8584205344753
 21
-235.8467501018818
 72
     1
 10
-238.8584205344753
 20
-235.8467501018818
 11
-240.194348360903
 21
-235.8467501018818
 72
     1
 10
-240.194348360903
 20
-235.8467501018818
 11
-240.194348360903
 21
-235.3668657481401
 72
     1
 10
-240.194348360903
 20
-235.3668657481401
 11
-238.8584205344753
 21
-235.3668657481401
 72
     1
 10
-238.8584205344753
 20
-235.3668657481401
 11
-238.8584205344753
 21
-234.6688521426972
 72
     1
 10
-238.8584205344753
 20
-234.6688521426972
 11
-242.0087402582563
 21
-234.6688521426972
 97
       12
330
23C
330
236
330
25D
330
25C
330
25B
330
25A
330
237
330
238
330
239
330
23A
330
2DC
330
23B
 92
       16
 93
        4
 72
     2
 10
-241.5927282117448
 20
-236.195756904603
 40
0.7717997786796198
 50
141.8795802028454
 51
218.1204197971612
 73
     1
 72
     2
 10
-241.7924682480911
 20
-236.3524880827235
 40
0.5179085730134372
 50
218.1204197971511
 51
321.8795802028566
 73
     1
 72
     2
 10
-241.9922082844373
 20
-236.195756904603
 40
0.7717997786797123
 50
321.8795802028401
 51
398.1204197971533
 73
     1
 72
     2
 10
-241.7924682480911
 20
-236.0390257264826
 40
0.5179085730135266
 50
38.12041979714334
 51
141.8795802028489
 73
     1
 97
        4
330
2E9
330
2E8
330
2E3
330
2E2
 75
     1
 76
     0
 52
45.0
 41
0.1
 77
     0
 78
     1
 53
45.0
 43
0.0
 44
0.0
 45
-0.0707106781186548
 46
0.0707106781186548
 79
     0
 98
        1
 10
0.0
 20
0.0
  0
HATCH
  5
331
330
71
100
AcDbEntity
  8
1
  6
Continuous
 62
     2
100
AcDbHatch
 10
0.0
 20
0.0
 30
0.0
210
0.0
220
0.0
230
1.0
  2
_USER
 70
     0
 71
     1
 91
        2
 92
        1
 93
        4
 72
     2
 10
-246.0343556207179
 20
-239.5549473807774
 40
1.458034083651503
 50
117.5481481756634
 51
242.4518518243366
 73
     1
 72
     2
 10
-245.7534157288846
 20
-239.016372370474
 40
2.065479772208623
 50
242.451851824341
 51
297.5481481756856
 73
     1
 72
     2
 10
-245.4724758370513
 20
-239.5549473807774
 40
1.458034083652003
 50
297.548148175701
 51
422.451851824299
 73
     1
 72
     2
 10
-245.7534157288846
 20
-240.0935223910801
 40
2.065479772208492
 50
62.45185182430527
 51
117.5481481756682
 73
     1
 97
        4
330
2E7
330
2E4
330
2E6
330
2E5
 92
       16
 93
        4
 72
     2
 10
-245.7534157288846
 20
-239.3982162026568
 40
0.5179085730132249
 50
38.12041979714156
 51
141.8795802028682
 73
     1
 72
     2
 10
-245.5536756925385
 20
-239.5549473807774
 40
0.7717997786794856
 50
141.8795802028376
 51
218.1204197971624
 73
     1
 72
     2
 10
-245.7534157288846
 20
-239.7116785588974
 40
0.5179085730137051
 50
218.1204197971838
 51
321.8795802028065
 73
     1
 72
     2
 10
-245.953155765231
 20
-239.5549473807774
 40
0.7717997786796198
 50
321.8795802028454
 51
398.1204197971546
 73
     1
 97
        4
330
2CA
330
2CB
330
2CC
330
2C9
 75
     1
 76
     0
 52
45.0
 41
0.1
 77
     0
 78
     1
 53
45.0
 43
0.0
 44
0.0
 45
-0.0707106781186548
 46
0.0707106781186548
 79
     0
 98
        1
 10
0.0
 20
0.0
  0
HATCH
  5
332
330
71
100
AcDbEntity
  8
1
  6
Continuous
 62
     2
100
AcDbHatch
 10
0.0
 20
0.0
 30
0.0
210
0.0
220
0.0
230
1.0
  2
_USER
 70
     0
 71
     1
 91
        2
 92
        1
 93
        4
 72
     2
 10
-246.0343556207179
 20
-239.5549473807774
 40
1.458034083651503
 50
117.5481481756634
 51
242.4518518243366
 73
     1
 72
     2
 10
-245.7534157288846
 20
-239.016372370474
 40
2.065479772208623
 50
242.451851824341
 51
297.5481481756856
 73
     1
 72
     2
 10
-245.4724758370513
 20
-239.5549473807774
 40
1.458034083652003
 50
297.548148175701
 51
422.451851824299
 73
     1
 72
     2
 10
-245.7534157288846
 20
-240.0935223910801
 40
2.065479772208492
 50
62.45185182430527
 51
117.5481481756682
 73
     1
 97
        4
330
2E7
330
2E4
330
2E6
330
2E5
 92
       16
 93
        4
 72
     2
 10
-245.7534157288846
 20
-239.3982162026568
 40
0.5179085730132249
 50
38.12041979714156
 51
141.8795802028682
 73
     1
 72
     2
 10
-245.5536756925385
 20
-239.5549473807774
 40
0.7717997786794856
 50
141.8795802028376
 51
218.1204197971624
 73
     1
 72
     2
 10
-245.7534157288846
 20
-239.7116785588974
 40
0.5179085730137051
 50
218.1204197971838
 51
321.8795802028065
 73
     1
 72
     2
 10
-245.953155765231
 20
-239.5549473807774
 40
0.7717997786796198
 50
321.8795802028454
 51
398.1204197971546
 73
     1
 97
        4
330
2CA
330
2CB
330
2CC
330
2C9
 75
     1
 76
     0
 52
45.0
 41
0.1
 77
     0
 78
     1
 53
45.0
 43
0.0
 44
0.0
 45
-0.0707106781186548
 46
0.0707106781186548
 79
     0
 98
        1
 10
0.0
 20
0.0
  0
HATCH
  5
333
330
71
100
AcDbEntity
  8
1
  6
Continuous
 62
     2
100
AcDbHatch
 10
0.0
 20
0.0
 30
0.0
210
0.0
220
0.0
230
1.0
  2
_USER
 70
     0
 71
     1
 91
        2
 92
        1
 93
        6
 72
     1
 10
-250.3092304752781
 20
-234.6688521426972
 11
-250.3092304752781
 21
-237.7226616665083
 72
     1
 10
-250.3092304752781
 20
-237.7226616665083
 11
-249.068726065024
 21
-237.7226616665083
 72
     1
 10
-249.068726065024
 20
-237.7226616665083
 11
-249.068726065024
 21
-236.7795834253645
 72
     1
 10
-249.068726065024
 20
-236.7795834253645
 11
-248.3099584772437
 21
-236.7795834253645
 72
     2
 10
-248.3099584772437
 20
-235.7242177840308
 40
1.055365641333708
 50
270.0
 51
450.0
 73
     1
 72
     1
 10
-248.3099584772437
 20
-234.6688521426972
 11
-250.3092304752781
 21
-234.6688521426972
 97
        6
330
2F1
330
24E
330
244
330
243
330
250
330
24F
 92
       16
 93
        4
 72
     1
 10
-248.7514310034821
 20
-235.3319579881373
 11
-249.068726065024
 21
-235.3319579881373
 72
     1
 10
-249.068726065024
 20
-235.3319579881373
 11
-249.068726065024
 21
-236.0376856374795
 72
     1
 10
-249.068726065024
 20
-236.0376856374795
 11
-248.7514310034821
 21
-236.0376856374795
 72
     2
 10
-248.7514310034821
 20
-235.6848218128083
 40
0.3528638246712035
 50
270.0
 51
450.0
 73
     1
 97
        4
330
251
330
242
330
252
330
2DD
 75
     1
 76
     0
 52
45.0
 41
0.1
 77
     0
 78
     1
 53
45.0
 43
0.0
 44
0.0
 45
-0.0707106781186548
 46
0.0707106781186548
 79
     0
 98
        1
 10
0.0
 20
0.0
  0
HATCH
  5
334
330
71
100
AcDbEntity
  8
1
  6
Continuous
 62
     2
100
AcDbHatch
 10
0.0
 20
0.0
 30
0.0
210
0.0
220
0.0
230
1.0
  2
_USER
 70
     0
 71
     1
 91
        2
 92
        1
 93
        6
 72
     1
 10
-250.3092304752781
 20
-234.6688521426972
 11
-250.3092304752781
 21
-237.7226616665083
 72
     1
 10
-250.3092304752781
 20
-237.7226616665083
 11
-249.068726065024
 21
-237.7226616665083
 72
     1
 10
-249.068726065024
 20
-237.7226616665083
 11
-249.068726065024
 21
-236.7795834253645
 72
     1
 10
-249.068726065024
 20
-236.7795834253645
 11
-248.3099584772437
 21
-236.7795834253645
 72
     2
 10
-248.3099584772437
 20
-235.7242177840308
 40
1.055365641333708
 50
270.0
 51
450.0
 73
     1
 72
     1
 10
-248.3099584772437
 20
-234.6688521426972
 11
-250.3092304752781
 21
-234.6688521426972
 97
        6
330
2F1
330
24E
330
244
330
243
330
250
330
24F
 92
       16
 93
        4
 72
     1
 10
-248.7514310034821
 20
-235.3319579881373
 11
-249.068726065024
 21
-235.3319579881373
 72
     1
 10
-249.068726065024
 20
-235.3319579881373
 11
-249.068726065024
 21
-236.0376856374795
 72
     1
 10
-249.068726065024
 20
-236.0376856374795
 11
-248.7514310034821
 21
-236.0376856374795
 72
     2
 10
-248.7514310034821
 20
-235.6848218128083
 40
0.3528638246712035
 50
270.0
 51
450.0
 73
     1
 97
        4
330
251
330
242
330
252
330
2DD
 75
     1
 76
     0
 52
45.0
 41
0.1
 77
     0
 78
     1
 53
45.0
 43
0.0
 44
0.0
 45
-0.0707106781186548
 46
0.0707106781186548
 79
     0
 98
        1
 10
0.0
 20
0.0
  0
HATCH
  5
335
330
71
100
AcDbEntity
  8
1
  6
Continuous
 62
     2
100
AcDbHatch
 10
0.0
 20
0.0
 30
0.0
210
0.0
220
0.0
230
1.0
  2
_USER
 70
     0
 71
     1
 91
        1
 92
        1
 93
       12
 72
     1
 10
-230.6949472808449
 20
-234.6688521426972
 11
-229.2922230630977
 21
-234.6688521426972
 72
     1
 10
-229.2922230630977
 20
-234.6688521426972
 11
-230.5947526938642
 21
-236.1418026727334
 72
     1
 10
-230.5947526938642
 20
-236.1418026727334
 11
-229.1967996469239
 21
-237.7226616665083
 72
     1
 10
-229.1967996469239
 20
-237.7226616665083
 11
-230.5995238646722
 21
-237.7226616665083
 72
     1
 10
-230.5995238646722
 20
-237.7226616665083
 11
-231.2961148027377
 21
-236.9349298812146
 72
     1
 10
-231.2961148027377
 20
-236.9349298812146
 11
-231.9927057408034
 21
-237.7226616665083
 72
     1
 10
-231.9927057408034
 20
-237.7226616665083
 11
-233.3954299585516
 21
-237.7226616665083
 72
     1
 10
-233.3954299585516
 20
-237.7226616665083
 11
-231.9974769116113
 21
-236.1418026727334
 72
     1
 10
-231.9974769116113
 20
-236.1418026727334
 11
-233.3000065423788
 21
-234.6688521426972
 72
     1
 10
-233.3000065423788
 20
-234.6688521426972
 11
-231.8972823246295
 21
-234.6688521426972
 72
     1
 10
-231.8972823246295
 20
-234.6688521426972
 11
-231.2961148027377
 21
-235.3486754642526
 72
     1
 10
-231.2961148027377
 20
-235.3486754642526
 11
-230.6949472808449
 21
-234.6688521426972
 97
       12
330
21D
330
276
330
275
330
274
330
273
330
21E
330
21F
330
21B
330
21C
330
279
330
278
330
277
 75
     1
 76
     0
 52
45.0
 41
0.1
 77
     0
 78
     1
 53
45.0
 43
0.0
 44
0.0
 45
-0.0707106781186548
 46
0.0707106781186548
 79
     0
 98
        1
 10
0.0
 20
0.0
  0
HATCH
  5
336
330
71
100
AcDbEntity
  8
1
  6
Continuous
 62
     2
100
AcDbHatch
 10
0.0
 20
0.0
 30
0.0
210
0.0
220
0.0
230
1.0
  2
_USER
 70
     0
 71
     1
 91
        1
 92
        1
 93
       12
 72
     1
 10
-230.6949472808449
 20
-234.6688521426972
 11
-229.2922230630977
 21
-234.6688521426972
 72
     1
 10
-229.2922230630977
 20
-234.6688521426972
 11
-230.5947526938642
 21
-236.1418026727334
 72
     1
 10
-230.5947526938642
 20
-236.1418026727334
 11
-229.1967996469239
 21
-237.7226616665083
 72
     1
 10
-229.1967996469239
 20
-237.7226616665083
 11
-230.5995238646722
 21
-237.7226616665083
 72
     1
 10
-230.5995238646722
 20
-237.7226616665083
 11
-231.2961148027377
 21
-236.9349298812146
 72
     1
 10
-231.2961148027377
 20
-236.9349298812146
 11
-231.9927057408034
 21
-237.7226616665083
 72
     1
 10
-231.9927057408034
 20
-237.7226616665083
 11
-233.3954299585516
 21
-237.7226616665083
 72
     1
 10
-233.3954299585516
 20
-237.7226616665083
 11
-231.9974769116113
 21
-236.1418026727334
 72
     1
 10
-231.9974769116113
 20
-236.1418026727334
 11
-233.3000065423788
 21
-234.6688521426972
 72
     1
 10
-233.3000065423788
 20
-234.6688521426972
 11
-231.8972823246295
 21
-234.6688521426972
 72
     1
 10
-231.8972823246295
 20
-234.6688521426972
 11
-231.2961148027377
 21
-235.3486754642526
 72
     1
 10
-231.2961148027377
 20
-235.3486754642526
 11
-230.6949472808449
 21
-234.6688521426972
 97
       12
330
21D
330
276
330
275
330
274
330
273
330
21E
330
21F
330
21B
330
21C
330
279
330
278
330
277
 75
     1
 76
     0
 52
45.0
 41
0.1
 77
     0
 78
     1
 53
45.0
 43
0.0
 44
0.0
 45
-0.0707106781186548
 46
0.0707106781186548
 79
     0
 98
        1
 10
0.0
 20
0.0
  0
HATCH
  5
337
330
71
100
AcDbEntity
  8
1
  6
Continuous
 62
     2
100
AcDbHatch
 10
0.0
 20
0.0
 30
0.0
210
0.0
220
0.0
230
1.0
  2
_USER
 70
     0
 71
     1
 91
        1
 92
        1
 93
        4
 72
     1
 10
-233.5147092287685
 20
-234.6688521426972
 11
-233.5147092287685
 21
-237.7226616665083
 72
     1
 10
-233.5147092287685
 20
-237.7226616665083
 11
-234.7552136390214
 21
-237.7226616665083
 72
     1
 10
-234.7552136390214
 20
-237.7226616665083
 11
-234.7552136390214
 21
-234.6688521426972
 72
     1
 10
-234.7552136390214
 20
-234.6688521426972
 11
-233.5147092287685
 21
-234.6688521426972
 97
        4
330
271
330
220
330
270
330
272
 75
     1
 76
     0
 52
45.0
 41
0.1
 77
     0
 78
     1
 53
45.0
 43
0.0
 44
0.0
 45
-0.0707106781186548
 46
0.0707106781186548
 79
     0
 98
        1
 10
0.0
 20
0.0
  0
HATCH
  5
338
330
71
100
AcDbEntity
  8
1
  6
Continuous
 62
     2
100
AcDbHatch
 10
0.0
 20
0.0
 30
0.0
210
0.0
220
0.0
230
1.0
  2
_USER
 70
     0
 71
     1
 91
        1
 92
        1
 93
        4
 72
     1
 10
-233.5147092287685
 20
-234.6688521426972
 11
-233.5147092287685
 21
-237.7226616665083
 72
     1
 10
-233.5147092287685
 20
-237.7226616665083
 11
-234.7552136390214
 21
-237.7226616665083
 72
     1
 10
-234.7552136390214
 20
-237.7226616665083
 11
-234.7552136390214
 21
-234.6688521426972
 72
     1
 10
-234.7552136390214
 20
-234.6688521426972
 11
-233.5147092287685
 21
-234.6688521426972
 97
        4
330
271
330
220
330
270
330
272
 75
     1
 76
     0
 52
45.0
 41
0.1
 77
     0
 78
     1
 53
45.0
 43
0.0
 44
0.0
 45
-0.0707106781186548
 46
0.0707106781186548
 79
     0
 98
        1
 10
0.0
 20
0.0
  0
HATCH
  5
339
330
71
100
AcDbEntity
  8
1
  6
Continuous
 62
     2
100
AcDbHatch
 10
0.0
 20
0.0
 30
0.0
210
0.0
220
0.0
230
1.0
  2
_USER
 70
     0
 71
     1
 91
        2
 92
        1
 93
        8
 72
     1
 10
-233.9051532323005
 20
-241.0818521426826
 11
-235.1456576425544
 21
-241.0818521426826
 72
     1
 10
-235.1456576425544
 20
-241.0818521426826
 11
-235.3571376960302
 21
-240.5408915984648
 72
     1
 10
-235.3571376960302
 20
-240.5408915984648
 11
-236.489579272704
 21
-240.5408915984648
 72
     1
 10
-236.489579272704
 20
-240.5408915984648
 11
-236.7010593261798
 21
-241.0818521426826
 72
     1
 10
-236.7010593261798
 20
-241.0818521426826
 11
-237.9415637364328
 21
-241.0818521426826
 72
     1
 10
-237.9415637364328
 20
-241.0818521426826
 11
-236.5436106894935
 21
-238.0280426188716
 72
     1
 10
-236.5436106894935
 20
-238.0280426188716
 11
-235.3031062792408
 21
-238.0280426188716
 72
     1
 10
-235.3031062792408
 20
-238.0280426188716
 11
-233.9051532323005
 21
-241.0818521426826
 97
        8
330
26C
330
226
330
26B
330
26E
330
223
330
26D
330
224
330
225
 92
       16
 93
        3
 72
     1
 10
-236.223523721559
 20
-239.8603283331582
 11
-235.6231932471765
 21
-239.8603283331582
 72
     1
 10
-235.6231932471765
 20
-239.8603283331582
 11
-235.9233584843666
 21
-239.0925133671715
 72
     1
 10
-235.9233584843666
 20
-239.0925133671715
 11
-236.223523721559
 21
-239.8603283331582
 97
        3
330
222
330
221
330
26F
 75
     1
 76
     0
 52
45.0
 41
0.1
 77
     0
 78
     1
 53
45.0
 43
0.0
 44
0.0
 45
-0.0707106781186548
 46
0.0707106781186548
 79
     0
 98
        1
 10
0.0
 20
0.0
  0
HATCH
  5
33A
330
71
100
AcDbEntity
  8
1
  6
Continuous
 62
     2
100
AcDbHatch
 10
0.0
 20
0.0
 30
0.0
210
0.0
220
0.0
230
1.0
  2
_USER
 70
     0
 71
     1
 91
        2
 92
        1
 93
        8
 72
     1
 10
-233.9051532323005
 20
-241.0818521426826
 11
-235.1456576425544
 21
-241.0818521426826
 72
     1
 10
-235.1456576425544
 20
-241.0818521426826
 11
-235.3571376960302
 21
-240.5408915984648
 72
     1
 10
-235.3571376960302
 20
-240.5408915984648
 11
-236.489579272704
 21
-240.5408915984648
 72
     1
 10
-236.489579272704
 20
-240.5408915984648
 11
-236.7010593261798
 21
-241.0818521426826
 72
     1
 10
-236.7010593261798
 20
-241.0818521426826
 11
-237.9415637364328
 21
-241.0818521426826
 72
     1
 10
-237.9415637364328
 20
-241.0818521426826
 11
-236.5436106894935
 21
-238.0280426188716
 72
     1
 10
-236.5436106894935
 20
-238.0280426188716
 11
-235.3031062792408
 21
-238.0280426188716
 72
     1
 10
-235.3031062792408
 20
-238.0280426188716
 11
-233.9051532323005
 21
-241.0818521426826
 97
        8
330
26C
330
226
330
26B
330
26E
330
223
330
26D
330
224
330
225
 92
       16
 93
        3
 72
     1
 10
-236.223523721559
 20
-239.8603283331582
 11
-235.6231932471765
 21
-239.8603283331582
 72
     1
 10
-235.6231932471765
 20
-239.8603283331582
 11
-235.9233584843666
 21
-239.0925133671715
 72
     1
 10
-235.9233584843666
 20
-239.0925133671715
 11
-236.223523721559
 21
-239.8603283331582
 97
        3
330
222
330
221
330
26F
 75
     1
 76
     0
 52
45.0
 41
0.1
 77
     0
 78
     1
 53
45.0
 43
0.0
 44
0.0
 45
-0.0707106781186548
 46
0.0707106781186548
 79
     0
 98
        1
 10
0.0
 20
0.0
  0
HATCH
  5
33B
330
71
100
AcDbEntity
  8
1
  6
Continuous
 62
     2
100
AcDbHatch
 10
0.0
 20
0.0
 30
0.0
210
0.0
220
0.0
230
1.0
  2
_USER
 70
     0
 71
     1
 91
        1
 92
        1
 93
        8
 72
     1
 10
-240.099075875615
 20
-238.0280426188716
 11
-240.099075875615
 21
-238.8133079249951
 72
     1
 10
-240.099075875615
 20
-238.8133079249951
 11
-239.2879768381404
 21
-238.8133079249951
 72
     1
 10
-239.2879768381404
 20
-238.8133079249951
 11
-239.2879768381404
 21
-241.0818521426826
 72
     1
 10
-239.2879768381404
 20
-241.0818521426826
 11
-238.0951841359739
 21
-241.0818521426826
 72
     1
 10
-238.0951841359739
 20
-241.0818521426826
 11
-238.0951841359739
 21
-238.8133079249951
 72
     1
 10
-238.0951841359739
 20
-238.8133079249951
 11
-237.2840850985014
 21
-238.8133079249951
 72
     1
 10
-237.2840850985014
 20
-238.8133079249951
 11
-237.2840850985014
 21
-238.0280426188716
 72
     1
 10
-237.2840850985014
 20
-238.0280426188716
 11
-240.099075875615
 21
-238.0280426188716
 97
        8
330
268
330
267
330
266
330
227
330
228
330
26A
330
229
330
269
 75
     1
 76
     0
 52
45.0
 41
0.1
 77
     0
 78
     1
 53
45.0
 43
0.0
 44
0.0
 45
-0.0707106781186548
 46
0.0707106781186548
 79
     0
 98
        1
 10
0.0
 20
0.0
  0
HATCH
  5
33C
330
71
100
AcDbEntity
  8
1
  6
Continuous
 62
     2
100
AcDbHatch
 10
0.0
 20
0.0
 30
0.0
210
0.0
220
0.0
230
1.0
  2
_USER
 70
     0
 71
     1
 91
        1
 92
        1
 93
        8
 72
     1
 10
-240.099075875615
 20
-238.0280426188716
 11
-240.099075875615
 21
-238.8133079249951
 72
     1
 10
-240.099075875615
 20
-238.8133079249951
 11
-239.2879768381404
 21
-238.8133079249951
 72
     1
 10
-239.2879768381404
 20
-238.8133079249951
 11
-239.2879768381404
 21
-241.0818521426826
 72
     1
 10
-239.2879768381404
 20
-241.0818521426826
 11
-238.0951841359739
 21
-241.0818521426826
 72
     1
 10
-238.0951841359739
 20
-241.0818521426826
 11
-238.0951841359739
 21
-238.8133079249951
 72
     1
 10
-238.0951841359739
 20
-238.8133079249951
 11
-237.2840850985014
 21
-238.8133079249951
 72
     1
 10
-237.2840850985014
 20
-238.8133079249951
 11
-237.2840850985014
 21
-238.0280426188716
 72
     1
 10
-237.2840850985014
 20
-238.0280426188716
 11
-240.099075875615
 21
-238.0280426188716
 97
        8
330
268
330
267
330
266
330
227
330
228
330
26A
330
229
330
269
 75
     1
 76
     0
 52
45.0
 41
0.1
 77
     0
 78
     1
 53
45.0
 43
0.0
 44
0.0
 45
-0.0707106781186548
 46
0.0707106781186548
 79
     0
 98
        1
 10
0.0
 20
0.0
  0
HATCH
  5
33D
330
71
100
AcDbEntity
  8
1
  6
Continuous
 62
     2
100
AcDbHatch
 10
0.0
 20
0.0
 30
0.0
210
0.0
220
0.0
230
1.0
  2
_USER
 70
     0
 71
     1
 91
        1
 92
        1
 93
       10
 72
     1
 10
-237.4270692918759
 20
-234.6688521426972
 11
-238.6198619940424
 21
-234.6688521426972
 72
     1
 10
-238.6198619940424
 20
-234.6688521426972
 11
-238.6198619940424
 21
-237.7226616665083
 72
     1
 10
-238.6198619940424
 20
-237.7226616665083
 11
-237.4270692918759
 21
-237.7226616665083
 72
     1
 10
-237.4270692918759
 20
-237.7226616665083
 11
-237.4270692918759
 21
-236.4138861563037
 72
     1
 10
-237.4270692918759
 20
-236.4138861563037
 11
-236.1865648816219
 21
-237.7226616665083
 72
     1
 10
-236.1865648816219
 20
-237.7226616665083
 11
-234.9937721794553
 21
-237.7226616665083
 72
     1
 10
-234.9937721794553
 20
-237.7226616665083
 11
-234.9937721794553
 21
-234.6688521426972
 72
     1
 10
-234.9937721794553
 20
-234.6688521426972
 11
-236.1865648816219
 21
-234.6688521426972
 72
     1
 10
-236.1865648816219
 20
-234.6688521426972
 11
-236.1865648816219
 21
-235.9776276529023
 72
     1
 10
-236.1865648816219
 20
-235.9776276529023
 11
-237.4270692918759
 21
-234.6688521426972
 97
       10
330
262
330
22C
330
22D
330
22E
330
22F
330
265
330
22A
330
264
330
263
330
22B
 75
     1
 76
     0
 52
45.0
 41
0.1
 77
     0
 78
     1
 53
45.0
 43
0.0
 44
0.0
 45
-0.0707106781186548
 46
0.0707106781186548
 79
     0
 98
        1
 10
0.0
 20
0.0
  0
HATCH
  5
33E
330
71
100
AcDbEntity
  8
1
  6
Continuous
 62
     2
100
AcDbHatch
 10
0.0
 20
0.0
 30
0.0
210
0.0
220
0.0
230
1.0
  2
_USER
 70
     0
 71
     1
 91
        1
 92
        1
 93
       10
 72
     1
 10
-237.4270692918759
 20
-234.6688521426972
 11
-238.6198619940424
 21
-234.6688521426972
 72
     1
 10
-238.6198619940424
 20
-234.6688521426972
 11
-238.6198619940424
 21
-237.7226616665083
 72
     1
 10
-238.6198619940424
 20
-237.7226616665083
 11
-237.4270692918759
 21
-237.7226616665083
 72
     1
 10
-237.4270692918759
 20
-237.7226616665083
 11
-237.4270692918759
 21
-236.4138861563037
 72
     1
 10
-237.4270692918759
 20
-236.4138861563037
 11
-236.1865648816219
 21
-237.7226616665083
 72
     1
 10
-236.1865648816219
 20
-237.7226616665083
 11
-234.9937721794553
 21
-237.7226616665083
 72
     1
 10
-234.9937721794553
 20
-237.7226616665083
 11
-234.9937721794553
 21
-234.6688521426972
 72
     1
 10
-234.9937721794553
 20
-234.6688521426972
 11
-236.1865648816219
 21
-234.6688521426972
 72
     1
 10
-236.1865648816219
 20
-234.6688521426972
 11
-236.1865648816219
 21
-235.9776276529023
 72
     1
 10
-236.1865648816219
 20
-235.9776276529023
 11
-237.4270692918759
 21
-234.6688521426972
 97
       10
330
262
330
22C
330
22D
330
22E
330
22F
330
265
330
22A
330
264
330
263
330
22B
 75
     1
 76
     0
 52
45.0
 41
0.1
 77
     0
 78
     1
 53
45.0
 43
0.0
 44
0.0
 45
-0.0707106781186548
 46
0.0707106781186548
 79
     0
 98
        1
 10
0.0
 20
0.0
  0
HATCH
  5
33F
330
71
100
AcDbEntity
  8
1
  6
Continuous
 62
     2
100
AcDbHatch
 10
0.0
 20
0.0
 30
0.0
210
0.0
220
0.0
230
1.0
  2
_USER
 70
     0
 71
     1
 91
        1
 92
        1
 93
       10
 72
     1
 10
-242.6755081122945
 20
-238.0280426188716
 11
-243.8683008144621
 21
-238.0280426188716
 72
     1
 10
-243.8683008144621
 20
-238.0280426188716
 11
-243.8683008144621
 21
-241.0818521426826
 72
     1
 10
-243.8683008144621
 20
-241.0818521426826
 11
-242.6755081122945
 21
-241.0818521426826
 72
     1
 10
-242.6755081122945
 20
-241.0818521426826
 11
-242.6755081122945
 21
-239.7730766324781
 72
     1
 10
-242.6755081122945
 20
-239.7730766324781
 11
-241.4350037020416
 21
-241.0818521426826
 72
     1
 10
-241.4350037020416
 20
-241.0818521426826
 11
-240.2422109998752
 21
-241.0818521426826
 72
     1
 10
-240.2422109998752
 20
-241.0818521426826
 11
-240.2422109998752
 21
-238.0280426188716
 72
     1
 10
-240.2422109998752
 20
-238.0280426188716
 11
-241.4350037020416
 21
-238.0280426188716
 72
     1
 10
-241.4350037020416
 20
-238.0280426188716
 11
-241.4350037020416
 21
-239.3368181290767
 72
     1
 10
-241.4350037020416
 20
-239.3368181290767
 11
-242.6755081122945
 21
-238.0280426188716
 97
       10
330
231
330
232
330
233
330
25F
330
234
330
235
330
25E
330
261
330
260
330
230
 75
     1
 76
     0
 52
45.0
 41
0.1
 77
     0
 78
     1
 53
45.0
 43
0.0
 44
0.0
 45
-0.0707106781186548
 46
0.0707106781186548
 79
     0
 98
        1
 10
0.0
 20
0.0
  0
HATCH
  5
340
330
71
100
AcDbEntity
  8
1
  6
Continuous
 62
     2
100
AcDbHatch
 10
0.0
 20
0.0
 30
0.0
210
0.0
220
0.0
230
1.0
  2
_USER
 70
     0
 71
     1
 91
        1
 92
        1
 93
       10
 72
     1
 10
-242.6755081122945
 20
-238.0280426188716
 11
-243.8683008144621
 21
-238.0280426188716
 72
     1
 10
-243.8683008144621
 20
-238.0280426188716
 11
-243.8683008144621
 21
-241.0818521426826
 72
     1
 10
-243.8683008144621
 20
-241.0818521426826
 11
-242.6755081122945
 21
-241.0818521426826
 72
     1
 10
-242.6755081122945
 20
-241.0818521426826
 11
-242.6755081122945
 21
-239.7730766324781
 72
     1
 10
-242.6755081122945
 20
-239.7730766324781
 11
-241.4350037020416
 21
-241.0818521426826
 72
     1
 10
-241.4350037020416
 20
-241.0818521426826
 11
-240.2422109998752
 21
-241.0818521426826
 72
     1
 10
-240.2422109998752
 20
-241.0818521426826
 11
-240.2422109998752
 21
-238.0280426188716
 72
     1
 10
-240.2422109998752
 20
-238.0280426188716
 11
-241.4350037020416
 21
-238.0280426188716
 72
     1
 10
-241.4350037020416
 20
-238.0280426188716
 11
-241.4350037020416
 21
-239.3368181290767
 72
     1
 10
-241.4350037020416
 20
-239.3368181290767
 11
-242.6755081122945
 21
-238.0280426188716
 97
       10
330
231
330
232
330
233
330
25F
330
234
330
235
330
25E
330
261
330
260
330
230
 75
     1
 76
     0
 52
45.0
 41
0.1
 77
     0
 78
     1
 53
45.0
 43
0.0
 44
0.0
 45
-0.0707106781186548
 46
0.0707106781186548
 79
     0
 98
        1
 10
0.0
 20
0.0
  0
HATCH
  5
341
330
71
100
AcDbEntity
  8
1
  6
Continuous
 62
     2
100
AcDbHatch
 10
0.0
 20
0.0
 30
0.0
210
0.0
220
0.0
230
1.0
  2
_USER
 70
     0
 71
     1
 91
        1
 92
        1
 93
       12
 72
     1
 10
-243.6773030512299
 20
-234.6688521426972
 11
-243.6773030512299
 21
-237.7226616665083
 72
     1
 10
-243.6773030512299
 20
-237.7226616665083
 11
-244.8700957533963
 21
-237.7226616665083
 72
     1
 10
-244.8700957533963
 20
-237.7226616665083
 11
-244.8700957533963
 21
-236.5883895576645
 72
     1
 10
-244.8700957533963
 20
-236.5883895576645
 11
-245.9197533313038
 21
-236.5883895576645
 72
     1
 10
-245.9197533313038
 20
-236.5883895576645
 11
-245.9197533313038
 21
-237.7226616665083
 72
     1
 10
-245.9197533313038
 20
-237.7226616665083
 11
-247.1125460334704
 21
-237.7226616665083
 72
     1
 10
-247.1125460334704
 20
-237.7226616665083
 11
-247.1125460334704
 21
-234.6688521426972
 72
     1
 10
-247.1125460334704
 20
-234.6688521426972
 11
-245.9197533313038
 21
-234.6688521426972
 72
     1
 10
-245.9197533313038
 20
-234.6688521426972
 11
-245.9197533313038
 21
-235.7376854760317
 72
     1
 10
-245.9197533313038
 20
-235.7376854760317
 11
-244.8700957533963
 21
-235.7376854760317
 72
     1
 10
-244.8700957533963
 20
-235.7376854760317
 11
-244.8700957533963
 21
-234.6688521426972
 72
     1
 10
-244.8700957533963
 20
-234.6688521426972
 11
-243.6773030512299
 21
-234.6688521426972
 97
       12
330
259
330
258
330
257
330
23F
330
240
330
256
330
241
330
255
330
254
330
253
330
23D
330
23E
 75
     1
 76
     0
 52
45.0
 41
0.1
 77
     0
 78
     1
 53
45.0
 43
0.0
 44
0.0
 45
-0.0707106781186548
 46
0.0707106781186548
 79
     0
 98
        1
 10
0.0
 20
0.0
  0
HATCH
  5
342
330
71
100
AcDbEntity
  8
1
  6
Continuous
 62
     2
100
AcDbHatch
 10
0.0
 20
0.0
 30
0.0
210
0.0
220
0.0
230
1.0
  2
_USER
 70
     0
 71
     1
 91
        1
 92
        1
 93
       12
 72
     1
 10
-243.6773030512299
 20
-234.6688521426972
 11
-243.6773030512299
 21
-237.7226616665083
 72
     1
 10
-243.6773030512299
 20
-237.7226616665083
 11
-244.8700957533963
 21
-237.7226616665083
 72
     1
 10
-244.8700957533963
 20
-237.7226616665083
 11
-244.8700957533963
 21
-236.5883895576645
 72
     1
 10
-244.8700957533963
 20
-236.5883895576645
 11
-245.9197533313038
 21
-236.5883895576645
 72
     1
 10
-245.9197533313038
 20
-236.5883895576645
 11
-245.9197533313038
 21
-237.7226616665083
 72
     1
 10
-245.9197533313038
 20
-237.7226616665083
 11
-247.1125460334704
 21
-237.7226616665083
 72
     1
 10
-247.1125460334704
 20
-237.7226616665083
 11
-247.1125460334704
 21
-234.6688521426972
 72
     1
 10
-247.1125460334704
 20
-234.6688521426972
 11
-245.9197533313038
 21
-234.6688521426972
 72
     1
 10
-245.9197533313038
 20
-234.6688521426972
 11
-245.9197533313038
 21
-235.7376854760317
 72
     1
 10
-245.9197533313038
 20
-235.7376854760317
 11
-244.8700957533963
 21
-235.7376854760317
 72
     1
 10
-244.8700957533963
 20
-235.7376854760317
 11
-244.8700957533963
 21
-234.6688521426972
 72
     1
 10
-244.8700957533963
 20
-234.6688521426972
 11
-243.6773030512299
 21
-234.6688521426972
 97
       12
330
259
330
258
330
257
330
23F
330
240
330
256
330
241
330
255
330
254
330
253
330
23D
330
23E
 75
     1
 76
     0
 52
45.0
 41
0.1
 77
     0
 78
     1
 53
45.0
 43
0.0
 44
0.0
 45
-0.0707106781186548
 46
0.0707106781186548
 79
     0
 98
        1
 10
0.0
 20
0.0
  0
ENDBLK
  5
73
330
71
100
AcDbEntity
  8
0
100
AcDbBlockEnd
  0
BLOCK
  5
75
330
74
100
AcDbEntity
  8
0
100
AcDbBlockBegin
  2
_punkt
 70
     0
 10
-131.7999992374409
 20
-248.3753521426989
 30
0.0
  3
_punkt
  1

  0
LINE
  5
343
330
74
100
AcDbEntity
  8
1
  6
Continuous
 62
     2
100
AcDbLine
 10
-131.7999992374409
 20
-248.3753521426989
 30
0.0
 11
-131.7999992374409
 21
-253.3753521426991
 31
0.0
  0
LINE
  5
344
330
74
100
AcDbEntity
  8
1
  6
Continuous
 62
     2
100
AcDbLine
 10
-131.7999992374409
 20
-248.3753521426989
 30
0.0
 11
-126.799999237442
 21
-248.3753521426989
 31
0.0
  0
ENDBLK
  5
76
330
74
100
AcDbEntity
  8
0
100
AcDbBlockEnd
  0
BLOCK
  5
7A
330
77
100
AcDbEntity
  8
0
100
AcDbBlockBegin
  2
A4I_CS
 70
     0
 10
-131.7999992374409
 20
-253.3753521426991
 30
0.0
  3
A4I_CS
  1

  0
INSERT
  5
78
330
77
100
AcDbEntity
  8
1
100
AcDbBlockReference
  2
_rahmen
 10
-131.7999992374409
 20
-253.3753521426991
 30
0.0
  0
INSERT
  5
79
330
77
100
AcDbEntity
  8
1
100
AcDbBlockReference
  2
_punkt
 10
-131.7999992374409
 20
-248.3753521426989
 30
0.0
  0
ENDBLK
  5
7B
330
77
100
AcDbEntity
  8
0
100
AcDbBlockEnd
  0
BLOCK
  5
84
330
7C
100
AcDbEntity
  8
0
100
AcDbBlockBegin
  2
1
 70
     0
 10
0.0
 20
0.0
 30
0.0
  3
1
  1

  0
INSERT
  5
7D
330
7C
100
AcDbEntity
  8
0
100
AcDbBlockReference
  2
Allg1
 10
-155.0000000000853
 20
-191.999999999762
 30
0.0
  0
INSERT
  5
7E
330
7C
100
AcDbEntity
  8
0
100
AcDbBlockReference
  2
Drfsicht1
 10
-302.5651454927442
 20
-202.50000000001
 30
0.0
 41
2.0
 42
2.0
 43
2.0
  0
INSERT
  5
7F
330
7C
100
AcDbEntity
  8
0
100
AcDbBlockReference
  2
Rckans1
 10
-179.4348545072563
 20
-125.9999999995
 30
0.0
 41
2.0
 42
2.0
 43
2.0
  0
INSERT
  5
80
330
7C
100
AcDbEntity
  8
0
100
AcDbBlockReference
  2
SA_Links1
 10
-240.99999999999
 20
-125.9999999995
 30
0.0
 41
2.0
 42
2.0
 43
2.0
  0
INSERT
  5
81
330
7C
100
AcDbEntity
  8
0
100
AcDbBlockReference
  2
SA_Rechts1
 10
-375.1302909851176
 20
-125.9999999995
 30
0.0
 41
2.0
 42
2.0
 43
2.0
  0
INSERT
  5
82
330
7C
100
AcDbEntity
  8
0
100
AcDbBlockReference
  2
Vordans1
 10
-302.5651454927442
 20
-125.9999999995
 30
0.0
 41
2.0
 42
2.0
 43
2.0
  0
INSERT
  5
83
330
7C
100
AcDbEntity
  8
0
100
AcDbBlockReference
  2
A4I_CS
 10
-131.7999992374409
 20
-253.3753521426991
 30
0.0
  0
ENDBLK
  5
85
330
7C
100
AcDbEntity
  8
0
100
AcDbBlockEnd
  0
BLOCK
  5
153
330
14C
100
AcDbEntity
  8
0
100
AcDbBlockBegin
  2
*D17
 70
     1
 10
0.0
 20
0.0
 30
0.0
  3
*D17
  1

  0
LINE
  5
14D
330
14C
100
AcDbEntity
  8
1
  6
Continuous
 62
     2
100
AcDbLine
 10
-169.2633894405982
 20
-94.09999942828496
 30
0.0
 11
-169.2633894405982
 21
-108.3999994282848
 31
0.0
  0
LINE
  5
14E
330
14C
100
AcDbEntity
  8
1
  6
Continuous
 62
     2
100
AcDbLine
 10
-153.6499996187206
 20
-94.09999942828496
 30
0.0
 11
-170.0133894405982
 21
-94.09999942828496
 31
0.0
  0
LINE
  5
14F
330
14C
100
AcDbEntity
  8
1
  6
Continuous
 62
     2
100
AcDbLine
 10
-153.6499996187206
 20
-108.3999994282848
 30
0.0
 11
-170.0133894405982
 21
-108.3999994282848
 31
0.0
  0
SOLID
  5
150
330
14C
100
AcDbEntity
  8
1
 62
     2
100
AcDbTrace
 10
-169.0329975698203
 20
-95.84999942828496
 30
0.0
 11
-169.4937813113761
 21
-95.84999942828496
 31
0.0
 12
-169.2633894405982
 22
-94.09999942828496
 32
0.0
 13
-169.2633894405982
 23
-94.09999942828496
 33
0.0
  0
SOLID
  5
151
330
14C
100
AcDbEntity
  8
1
 62
     2
100
AcDbTrace
 10
-169.4937813113761
 20
-106.6499994282848
 30
0.0
 11
-169.0329975698203
 21
-106.6499994282848
 31
0.0
 12
-169.2633894405982
 22
-108.3999994282848
 32
0.0
 13
-169.2633894405982
 23
-108.3999994282848
 33
0.0
  0
MTEXT
  5
152
330
14C
100
AcDbEntity
  8
1
 62
     3
100
AcDbMText
 10
-170.1883894405982
 20
-104.2184034125406
 30
0.0
 40
1.75
 41
0.0
 71
     7
 72
     1
  1
14,3
  7
CONVERTER_11
 11
0.0
 21
1.0
 31
0.0
 73
     1
 44
0.60024009603842
  0
ENDBLK
  5
154
330
14C
100
AcDbEntity
  8
0
100
AcDbBlockEnd
  0
BLOCK
  5
1F2
330
1EB
100
AcDbEntity
  8
0
100
AcDbBlockBegin
  2
*D18
 70
     1
 10
0.0
 20
0.0
 30
0.0
  3
*D18
  1

  0
LINE
  5
1EC
330
1EB
100
AcDbEntity
  8
1
  6
Continuous
 62
     2
100
AcDbLine
 10
-169.9151468119011
 20
-79.59999961803024
 30
0.0
 11
-169.9151468119011
 21
-35.6999996180302
 31
0.0
  0
LINE
  5
1ED
330
1EB
100
AcDbEntity
  8
1
  6
Continuous
 62
     2
100
AcDbLine
 10
-155.1499996187205
 20
-79.59999961803024
 30
0.0
 11
-170.6651468119011
 21
-79.59999961803024
 31
0.0
  0
LINE
  5
1EE
330
1EB
100
AcDbEntity
  8
1
  6
Continuous
 62
     2
100
AcDbLine
 10
-164.3499996187202
 20
-35.6999996180302
 30
0.0
 11
-170.6651468119011
 21
-35.6999996180302
 31
0.0
  0
SOLID
  5
1EF
330
1EB
100
AcDbEntity
  8
1
 62
     2
100
AcDbTrace
 10
-170.145538682679
 20
-77.84999961803024
 30
0.0
 11
-169.6847549411231
 21
-77.84999961803024
 31
0.0
 12
-169.9151468119011
 22
-79.59999961803024
 32
0.0
 13
-169.9151468119011
 23
-79.59999961803024
 33
0.0
  0
SOLID
  5
1F0
330
1EB
100
AcDbEntity
  8
1
 62
     2
100
AcDbTrace
 10
-169.6847549411231
 20
-37.4499996180302
 30
0.0
 11
-170.145538682679
 21
-37.4499996180302
 31
0.0
 12
-169.9151468119011
 22
-35.6999996180302
 32
0.0
 13
-169.9151468119011
 23
-35.6999996180302
 33
0.0
  0
MTEXT
  5
1F1
330
1EB
100
AcDbEntity
  8
1
 62
     3
100
AcDbMText
 10
-170.8401468119011
 20
-60.29835337188128
 30
0.0
 40
1.75
 41
0.0
 71
     7
 72
     1
  1
43,9
  7
CONVERTER_11
 11
0.0
 21
1.0
 31
0.0
 73
     1
 44
0.60024009603842
  0
ENDBLK
  5
1F3
330
1EB
100
AcDbEntity
  8
0
100
AcDbBlockEnd
  0
BLOCK
  5
1FD
330
1F6
100
AcDbEntity
  8
0
100
AcDbBlockBegin
  2
*D19
 70
     1
 10
0.0
 20
0.0
 30
0.0
  3
*D19
  1

  0
LINE
  5
1F7
330
1F6
100
AcDbEntity
  8
1
  6
Continuous
 62
     2
100
AcDbLine
 10
-155.1499996187206
 20
-83.62777777778041
 30
0.0
 11
-139.1499996187206
 21
-83.62777777778041
 31
0.0
  0
LINE
  5
1F8
330
1F6
100
AcDbEntity
  8
1
  6
Continuous
 62
     2
100
AcDbLine
 10
-155.1499996187206
 20
-58.39999961803019
 30
0.0
 11
-155.1499996187206
 21
-84.37777777778041
 31
0.0
  0
LINE
  5
1F9
330
1F6
100
AcDbEntity
  8
1
  6
Continuous
 62
     2
100
AcDbLine
 10
-139.1499996187206
 20
-58.39999961803019
 30
0.0
 11
-139.1499996187206
 21
-84.37777777778041
 31
0.0
  0
SOLID
  5
1FA
330
1F6
100
AcDbEntity
  8
1
 62
     2
100
AcDbTrace
 10
-153.3999996187206
 20
-83.39738590700247
 30
0.0
 11
-153.3999996187206
 21
-83.85816964855834
 31
0.0
 12
-155.1499996187206
 22
-83.62777777778041
 32
0.0
 13
-155.1499996187206
 23
-83.62777777778041
 33
0.0
  0
SOLID
  5
1FB
330
1F6
100
AcDbEntity
  8
1
 62
     2
100
AcDbTrace
 10
-140.8999996187206
 20
-83.85816964855834
 30
0.0
 11
-140.8999996187206
 21
-83.39738590700247
 31
0.0
 12
-139.1499996187206
 22
-83.62777777778041
 32
0.0
 13
-139.1499996187206
 23
-83.62777777778041
 33
0.0
  0
MTEXT
  5
1FC
330
1F6
100
AcDbEntity
  8
1
 62
     3
100
AcDbMText
 10
-147.3833333333287
 20
-82.87777777778041
 30
0.0
 40
1.75
 41
0.0
 71
     7
 72
     1
  1
16
  7
CONVERTER_11
 11
0.9999999999970619
 21
2.424068405545306E-6
 31
0.0
 73
     1
 44
0.60024009603842
  0
ENDBLK
  5
1FE
330
1F6
100
AcDbEntity
  8
0
100
AcDbBlockEnd
  0
BLOCK
  5
208
330
201
100
AcDbEntity
  8
0
100
AcDbBlockBegin
  2
*D20
 70
     1
 10
0.0
 20
0.0
 30
0.0
  3
*D20
  1

  0
LINE
  5
202
330
201
100
AcDbEntity
  8
1
  6
Continuous
 62
     2
100
AcDbLine
 10
-164.846272694541
 20
-87.99982356059404
 30
0.0
 11
-137.6499996187206
 21
-87.99982356059404
 31
0.0
  0
LINE
  5
203
330
201
100
AcDbEntity
  8
1
  6
Continuous
 62
     2
100
AcDbLine
 10
-164.846272694541
 20
-36.26093428973276
 30
0.0
 11
-164.846272694541
 21
-88.74982356059404
 31
0.0
  0
LINE
  5
204
330
201
100
AcDbEntity
  8
1
  6
Continuous
 62
     2
100
AcDbLine
 10
-137.6499996187206
 20
-35.69999961803021
 30
0.0
 11
-137.6499996187206
 21
-88.74982356059404
 31
0.0
  0
SOLID
  5
205
330
201
100
AcDbEntity
  8
1
 62
     2
100
AcDbTrace
 10
-163.096272694541
 20
-87.7694316898161
 30
0.0
 11
-163.096272694541
 21
-88.23021543137197
 31
0.0
 12
-164.846272694541
 22
-87.99982356059404
 32
0.0
 13
-164.846272694541
 23
-87.99982356059404
 33
0.0
  0
SOLID
  5
206
330
201
100
AcDbEntity
  8
1
 62
     2
100
AcDbTrace
 10
-139.3999996187206
 20
-88.23021543137197
 30
0.0
 11
-139.3999996187206
 21
-87.7694316898161
 31
0.0
 12
-137.6499996187206
 22
-87.99982356059404
 32
0.0
 13
-137.6499996187206
 23
-87.99982356059404
 33
0.0
  0
MTEXT
  5
207
330
201
100
AcDbEntity
  8
1
 62
     3
100
AcDbMText
 10
-153.228447180371
 20
-87.07482356059403
 30
0.0
 40
1.75
 41
0.0
 71
     7
 72
     1
  1
27,2
  7
CONVERTER_11
 11
0.9999999999970619
 21
2.424068405545306E-6
 31
0.0
 73
     1
 44
0.60024009603842
  0
ENDBLK
  5
209
330
201
100
AcDbEntity
  8
0
100
AcDbBlockEnd
  0
ENDSEC
  0
SECTION
  2
ENTITIES
  0
INSERT
  5
86
330
1F
100
AcDbEntity
  8
1
100
AcDbBlockReference
  2
1
 10
0.0
 20
0.0
 30
0.0
  0
ENDSEC
  0
SECTION
  2
OBJECTS
  0
DICTIONARY
  5
C
330
0
100
AcDbDictionary
281
     1
  3
ACAD_GROUP
350
D
  3
ACAD_LAYOUT
350
1A
  3
ACAD_MATERIAL
350
3B
  3
ACAD_MLEADERSTYLE
350
36C
  3
ACAD_MLINESTYLE
350
17
  3
ACAD_PLOTSETTINGS
350
19
  3
ACAD_PLOTSTYLENAME
350
E
  3
ACAD_TABLESTYLE
350
36B
  3
ACAD_VISUALSTYLE
350
2A
  0
DICTIONARY
  5
D
102
{ACAD_REACTORS
330
C
102
}
330
C
100
AcDbDictionary
281
     1
  0
DICTIONARY
  5
1A
102
{ACAD_REACTORS
330
C
102
}
330
C
100
AcDbDictionary
281
     1
  3
Layout1
350
1E
  3
Layout2
350
26
  3
Model
350
22
  0
DICTIONARY
  5
3B
102
{ACAD_REACTORS
330
C
102
}
330
C
100
AcDbDictionary
281
     1
  3
ByBlock
350
3D
  3
ByLayer
350
3C
  3
Global
350
3E
  0
DICTIONARY
  5
36C
102
{ACAD_REACTORS
330
C
102
}
330
C
100
AcDbDictionary
281
     1
  0
DICTIONARY
  5
17
102
{ACAD_REACTORS
330
C
102
}
330
C
100
AcDbDictionary
281
     1
  3
Standard
350
18
  0
DICTIONARY
  5
19
102
{ACAD_REACTORS
330
C
102
}
330
C
100
AcDbDictionary
281
     1
  0
ACDBDICTIONARYWDFLT
  5
E
102
{ACAD_REACTORS
330
C
102
}
330
C
100
AcDbDictionary
281
     1
  3
Normal
350
F
100
AcDbDictionaryWithDefault
340
F
  0
DICTIONARY
  5
36B
102
{ACAD_REACTORS
330
C
102
}
330
C
100
AcDbDictionary
281
     1
  0
DICTIONARY
  5
2A
102
{ACAD_REACTORS
330
C
102
}
330
C
100
AcDbDictionary
281
     1
  3
2dWireframe
350
2F
  3
3D Hidden
350
31
  3
3dWireframe
350
30
  3
Basic
350
32
  3
Brighten
350
36
  3
ColorChange
350
3A
  3
Conceptual
350
34
  3
Dim
350
35
  3
Facepattern
350
39
  3
Flat
350
2B
  3
FlatWithEdges
350
2C
  3
Gouraud
350
2D
  3
GouraudWithEdges
350
2E
  3
Linepattern
350
38
  3
Realistic
350
33
  3
Thicken
350
37
  0
LAYOUT
  5
1E
102
{ACAD_REACTORS
330
1A
102
}
330
1A
100
AcDbPlotSettings
  1

  2
none_device
  4

  6

 40
0.0
 41
0.0
 42
0.0
 43
0.0
 44
0.0
 45
0.0
 46
0.0
 47
0.0
 48
0.0
 49
0.0
140
0.0
141
0.0
142
1.0
143
1.0
 70
   688
 72
     0
 73
     0
 74
     5
  7

 75
    16
 76
     0
 77
     2
 78
   300
147
1.0
148
0.0
149
0.0
100
AcDbLayout
  1
Layout1
 70
     1
 71
     1
 10
0.0
 20
0.0
 11
12.0
 21
9.0
 12
0.0
 22
0.0
 32
0.0
 14
1.00000000000000E+20
 24
1.00000000000000E+20
 34
1.00000000000000E+20
 15
-1.00000000000000E+20
 25
-1.00000000000000E+20
 35
-1.00000000000000E+20
146
0.0
 13
0.0
 23
0.0
 33
0.0
 16
1.0
 26
0.0
 36
0.0
 17
0.0
 27
1.0
 37
0.0
 76
     0
330
1B
  0
LAYOUT
  5
26
102
{ACAD_REACTORS
330
1A
102
}
330
1A
100
AcDbPlotSettings
  1

  2
none_device
  4

  6

 40
0.0
 41
0.0
 42
0.0
 43
0.0
 44
0.0
 45
0.0
 46
0.0
 47
0.0
 48
0.0
 49
0.0
140
0.0
141
0.0
142
1.0
143
1.0
 70
   688
 72
     0
 73
     0
 74
     5
  7

 75
    16
 76
     0
 77
     2
 78
   300
147
1.0
148
0.0
149
0.0
100
AcDbLayout
  1
Layout2
 70
     1
 71
     2
 10
0.0
 20
0.0
 11
0.0
 21
0.0
 12
0.0
 22
0.0
 32
0.0
 14
0.0
 24
0.0
 34
0.0
 15
0.0
 25
0.0
 35
0.0
146
0.0
 13
0.0
 23
0.0
 33
0.0
 16
1.0
 26
0.0
 36
0.0
 17
0.0
 27
1.0
 37
0.0
 76
     0
330
23
  0
LAYOUT
  5
22
102
{ACAD_REACTORS
330
1A
102
}
330
1A
100
AcDbPlotSettings
  1

  2
none_device
  4

  6

 40
0.0
 41
0.0
 42
0.0
 43
0.0
 44
0.0
 45
0.0
 46
0.0
 47
0.0
 48
0.0
 49
0.0
140
0.0
141
0.0
142
1.0
143
1.0
 70
  1712
 72
     0
 73
     0
 74
     0
  7

 75
     0
 76
     0
 77
     2
 78
   300
147
1.0
148
0.0
149
0.0
100
AcDbLayout
  1
Model
 70
     1
 71
     0
 10
0.0
 20
0.0
 11
12.0
 21
9.0
 12
0.0
 22
0.0
 32
0.0
 14
-423.79999923744
 24
-253.3753521426991
 34
0.0
 15
-126.799999237442
 25
-43.37535214269894
 35
0.0
146
0.0
 13
0.0
 23
0.0
 33
0.0
 16
1.0
 26
0.0
 36
0.0
 17
0.0
 27
1.0
 37
0.0
 76
     0
330
1F
331
29
  0
MATERIAL
  5
3D
102
{ACAD_REACTORS
330
3B
102
}
102
{ACAD_XDICTIONARY
360
367
102
}
330
3B
100
AcDbMaterial
  1
ByBlock
  0
MATERIAL
  5
3C
102
{ACAD_REACTORS
330
3B
102
}
102
{ACAD_XDICTIONARY
360
365
102
}
330
3B
100
AcDbMaterial
  1
ByLayer
  0
MATERIAL
  5
3E
102
{ACAD_REACTORS
330
3B
102
}
102
{ACAD_XDICTIONARY
360
369
102
}
330
3B
100
AcDbMaterial
  1
Global
  0
MLINESTYLE
  5
18
102
{ACAD_REACTORS
330
17
102
}
330
17
100
AcDbMlineStyle
  2
Standard
 70
     0
  3

 62
   256
 51
90.0
 52
90.0
 71
     2
 49
0.5
 62
   256
  6
BYLAYER
 49
-0.5
 62
   256
  6
BYLAYER
  0
ACDBPLACEHOLDER
  5
F
102
{ACAD_REACTORS
330
E
102
}
330
E
  0
VISUALSTYLE
  5
2F
102
{ACAD_REACTORS
330
2A
102
}
102
{ACAD_XDICTIONARY
360
34D
102
}
330
2A
100
AcDbVisualStyle
  2
2dWireframe
 70
     4
 71
     0
 72
     2
 73
     0
 90
        0
 40
-0.6
 41
-30.0
 62
     5
 63
     7
421
 16777215
 74
     1
 91
        4
 64
     7
 65
   257
 75
     1
175
     1
 42
1.0
 92
        0
 66
   257
 43
1.0
 76
     1
 77
     6
 78
     2
 67
     7
 79
     5
170
     0
171
     0
290
     0
174
     0
 93
        1
 44
0.0
173
     0
291
     0
 45
0.0
1001
ACAD
1000
AcDbSavedByObjectVersion
1070
     0
  0
VISUALSTYLE
  5
31
102
{ACAD_REACTORS
330
2A
102
}
102
{ACAD_XDICTIONARY
360
351
102
}
330
2A
100
AcDbVisualStyle
  2
3D Hidden
 70
     6
 71
     1
 72
     2
 73
     2
 90
        0
 40
-0.6
 41
-30.0
 62
     5
 63
     7
421
 16777215
 74
     2
 91
        2
 64
     7
 65
   257
 75
     2
175
     1
 42
40.0
 92
        0
 66
   257
 43
1.0
 76
     1
 77
     6
 78
     2
 67
     7
 79
     3
170
     0
171
     0
290
     0
174
     0
 93
        1
 44
0.0
173
     0
291
     0
 45
0.0
1001
ACAD
1000
AcDbSavedByObjectVersion
1070
     0
  0
VISUALSTYLE
  5
30
102
{ACAD_REACTORS
330
2A
102
}
102
{ACAD_XDICTIONARY
360
34F
102
}
330
2A
100
AcDbVisualStyle
  2
3dWireframe
 70
     5
 71
     0
 72
     2
 73
     0
 90
        0
 40
-0.6
 41
-30.0
 62
     5
 63
     7
421
 16777215
 74
     1
 91
        4
 64
     7
 65
   257
 75
     1
175
     1
 42
1.0
 92
        0
 66
   257
 43
1.0
 76
     1
 77
     6
 78
     2
 67
     7
 79
     5
170
     0
171
     0
290
     0
174
     0
 93
        1
 44
0.0
173
     0
291
     0
 45
0.0
1001
ACAD
1000
AcDbSavedByObjectVersion
1070
     0
  0
VISUALSTYLE
  5
32
102
{ACAD_REACTORS
330
2A
102
}
102
{ACAD_XDICTIONARY
360
353
102
}
330
2A
100
AcDbVisualStyle
  2
Basic
 70
     7
 71
     1
 72
     0
 73
     1
 90
        0
 40
-0.6
 41
-30.0
 62
     5
 63
     7
421
 16777215
 74
     0
 91
        4
 64
     7
 65
   257
 75
     1
175
     1
 42
1.0
 92
        8
 66
     7
 43
1.0
 76
     1
 77
     6
 78
     2
 67
     7
 79
     5
170
     0
171
     0
290
     0
174
     0
 93
        1
 44
0.0
173
     0
291
     1
 45
0.0
1001
ACAD
1000
AcDbSavedByObjectVersion
1070
     0
  0
VISUALSTYLE
  5
36
102
{ACAD_REACTORS
330
2A
102
}
102
{ACAD_XDICTIONARY
360
35B
102
}
330
2A
100
AcDbVisualStyle
  2
Brighten
 70
    12
 71
     2
 72
     2
 73
     0
 90
        0
 40
-0.6
 41
-30.0
 62
     5
 63
     7
421
 16777215
 74
     1
 91
        4
 64
     7
 65
   257
 75
     1
175
     1
 42
1.0
 92
        8
 66
     7
 43
1.0
 76
     1
 77
     6
 78
     2
 67
     7
 79
     5
170
     0
171
     0
290
     0
174
     0
 93
        1
 44
50.0
173
     0
291
     1
 45
0.0
1001
ACAD
1000
AcDbSavedByObjectVersion
1070
     0
  0
VISUALSTYLE
  5
3A
102
{ACAD_REACTORS
330
2A
102
}
102
{ACAD_XDICTIONARY
360
363
102
}
330
2A
100
AcDbVisualStyle
  2
ColorChange
 70
    16
 71
     2
 72
     2
 73
     3
 90
        0
 40
-0.6
 41
-30.0
 62
     5
 63
     8
421
  8421504
 74
     1
 91
        4
 64
     7
 65
   257
 75
     1
175
     1
 42
1.0
 92
        8
 66
     8
424
  8421504
 43
1.0
 76
     1
 77
     6
 78
     2
 67
     7
 79
     5
170
     0
171
     0
290
     0
174
     0
 93
        1
 44
0.0
173
     0
291
     1
 45
0.0
1001
ACAD
1000
AcDbSavedByObjectVersion
1070
     0
  0
VISUALSTYLE
  5
34
102
{ACAD_REACTORS
330
2A
102
}
102
{ACAD_XDICTIONARY
360
357
102
}
330
2A
100
AcDbVisualStyle
  2
Conceptual
 70
     9
 71
     3
 72
     2
 73
     0
 90
        0
 40
-0.6
 41
-30.0
 62
     5
 63
     7
421
 16777215
 74
     2
 91
        2
 64
     7
 65
   257
 75
     1
175
     1
 42
40.0
 92
        8
 66
     7
 43
1.0
 76
     1
 77
     6
 78
     2
 67
     7
 79
     3
170
     0
171
     0
290
     0
174
     0
 93
        1
 44
0.0
173
     0
291
     0
 45
0.0
1001
ACAD
1000
AcDbSavedByObjectVersion
1070
     0
  0
VISUALSTYLE
  5
35
102
{ACAD_REACTORS
330
2A
102
}
102
{ACAD_XDICTIONARY
360
359
102
}
330
2A
100
AcDbVisualStyle
  2
Dim
 70
    11
 71
     2
 72
     2
 73
     0
 90
        0
 40
-0.6
 41
-30.0
 62
     5
 63
     7
421
 16777215
 74
     1
 91
        4
 64
     7
 65
   257
 75
     1
175
     1
 42
1.0
 92
        8
 66
     7
 43
1.0
 76
     1
 77
     6
 78
     2
 67
     7
 79
     5
170
     0
171
     0
290
     0
174
     0
 93
        1
 44
-50.0
173
     0
291
     1
 45
0.0
1001
ACAD
1000
AcDbSavedByObjectVersion
1070
     0
  0
VISUALSTYLE
  5
39
102
{ACAD_REACTORS
330
2A
102
}
102
{ACAD_XDICTIONARY
360
361
102
}
330
2A
100
AcDbVisualStyle
  2
Facepattern
 70
    15
 71
     2
 72
     2
 73
     0
 90
        0
 40
-0.6
 41
-30.0
 62
     5
 63
     7
421
 16777215
 74
     1
 91
        4
 64
     7
 65
   257
 75
     1
175
     1
 42
1.0
 92
        8
 66
     7
 43
1.0
 76
     1
 77
     6
 78
     2
 67
     7
 79
     5
170
     0
171
     0
290
     0
174
     0
 93
        1
 44
0.0
173
     0
291
     1
 45
0.0
1001
ACAD
1000
AcDbSavedByObjectVersion
1070
     0
  0
VISUALSTYLE
  5
2B
102
{ACAD_REACTORS
330
2A
102
}
102
{ACAD_XDICTIONARY
360
345
102
}
330
2A
100
AcDbVisualStyle
  2
Flat
 70
     0
 71
     2
 72
     1
 73
     1
 90
        2
 40
-0.6
 41
30.0
 62
     5
 63
     7
421
 16777215
 74
     0
 91
        4
 64
     7
 65
   257
 75
     1
175
     1
 42
1.0
 92
        8
 66
     7
 43
1.0
 76
     1
 77
     6
 78
     2
 67
     7
 79
     5
170
     0
171
     0
290
     0
174
     0
 93
       13
 44
0.0
173
     0
291
     1
 45
0.0
1001
ACAD
1000
AcDbSavedByObjectVersion
1070
     0
  0
VISUALSTYLE
  5
2C
102
{ACAD_REACTORS
330
2A
102
}
102
{ACAD_XDICTIONARY
360
347
102
}
330
2A
100
AcDbVisualStyle
  2
FlatWithEdges
 70
     1
 71
     2
 72
     1
 73
     1
 90
        2
 40
-0.6
 41
30.0
 62
     5
 63
     7
421
 16777215
 74
     1
 91
        4
 64
     7
 65
   257
 75
     1
175
     1
 42
1.0
 92
        0
 66
   257
 43
1.0
 76
     1
 77
     6
 78
     2
 67
     7
 79
     5
170
     0
171
     0
290
     0
174
     0
 93
       13
 44
0.0
173
     0
291
     1
 45
0.0
1001
ACAD
1000
AcDbSavedByObjectVersion
1070
     0
  0
VISUALSTYLE
  5
2D
102
{ACAD_REACTORS
330
2A
102
}
102
{ACAD_XDICTIONARY
360
349
102
}
330
2A
100
AcDbVisualStyle
  2
Gouraud
 70
     2
 71
     2
 72
     2
 73
     1
 90
        2
 40
-0.6
 41
30.0
 62
     5
 63
     7
421
 16777215
 74
     0
 91
        4
 64
     7
 65
   257
 75
     1
175
     1
 42
1.0
 92
        0
 66
     7
 43
1.0
 76
     1
 77
     6
 78
     2
 67
     7
 79
     5
170
     0
171
     0
290
     0
174
     0
 93
       13
 44
0.0
173
     0
291
     1
 45
0.0
1001
ACAD
1000
AcDbSavedByObjectVersion
1070
     0
  0
VISUALSTYLE
  5
2E
102
{ACAD_REACTORS
330
2A
102
}
102
{ACAD_XDICTIONARY
360
34B
102
}
330
2A
100
AcDbVisualStyle
  2
GouraudWithEdges
 70
     3
 71
     2
 72
     2
 73
     1
 90
        2
 40
-0.6
 41
30.0
 62
     5
 63
     7
421
 16777215
 74
     1
 91
        4
 64
     7
 65
   257
 75
     1
175
     1
 42
1.0
 92
        0
 66
   257
 43
1.0
 76
     1
 77
     6
 78
     2
 67
     7
 79
     5
170
     0
171
     0
290
     0
174
     0
 93
       13
 44
0.0
173
     0
291
     1
 45
0.0
1001
ACAD
1000
AcDbSavedByObjectVersion
1070
     0
  0
VISUALSTYLE
  5
38
102
{ACAD_REACTORS
330
2A
102
}
102
{ACAD_XDICTIONARY
360
35F
102
}
330
2A
100
AcDbVisualStyle
  2
Linepattern
 70
    14
 71
     2
 72
     2
 73
     0
 90
        0
 40
-0.6
 41
-30.0
 62
     5
 63
     7
421
 16777215
 74
     1
 91
        4
 64
     7
 65
   257
 75
     7
175
     7
 42
1.0
 92
        8
 66
     7
 43
1.0
 76
     1
 77
     6
 78
     2
 67
     7
 79
     5
170
     0
171
     0
290
     0
174
     0
 93
        1
 44
0.0
173
     0
291
     1
 45
0.0
1001
ACAD
1000
AcDbSavedByObjectVersion
1070
     0
  0
VISUALSTYLE
  5
33
102
{ACAD_REACTORS
330
2A
102
}
102
{ACAD_XDICTIONARY
360
355
102
}
330
2A
100
AcDbVisualStyle
  2
Realistic
 70
     8
 71
     2
 72
     2
 73
     0
 90
        0
 40
-0.6
 41
-30.0
 62
     5
 63
     7
421
 16777215
 74
     1
 91
        0
 64
     7
 65
   257
 75
     1
175
     1
 42
1.0
 92
        8
 66
     8
424
  7895160
 43
1.0
 76
     1
 77
     6
 78
     2
 67
     7
 79
     5
170
     0
171
     0
290
     0
174
     0
 93
       13
 44
0.0
173
     0
291
     0
 45
0.0
1001
ACAD
1000
AcDbSavedByObjectVersion
1070
     0
  0
VISUALSTYLE
  5
37
102
{ACAD_REACTORS
330
2A
102
}
102
{ACAD_XDICTIONARY
360
35D
102
}
330
2A
100
AcDbVisualStyle
  2
Thicken
 70
    13
 71
     2
 72
     2
 73
     0
 90
        0
 40
-0.6
 41
-30.0
 62
     5
 63
     7
421
 16777215
 74
     1
 91
        4
 64
     7
 65
   257
 75
     1
175
     1
 42
1.0
 92
       12
 66
     7
 43
1.0
 76
     1
 77
     6
 78
     2
 67
     7
 79
     5
170
     0
171
     0
290
     0
174
     0
 93
        1
 44
0.0
173
     0
291
     1
 45
0.0
1001
ACAD
1000
AcDbSavedByObjectVersion
1070
     0
  0
DICTIONARY
  5
367
330
3D
100
AcDbDictionary
280
     1
281
     1
  3
ACAD_XREC_ROUNDTRIP
360
368
  0
DICTIONARY
  5
365
330
3C
100
AcDbDictionary
280
     1
281
     1
  3
ACAD_XREC_ROUNDTRIP
360
366
  0
DICTIONARY
  5
369
330
3E
100
AcDbDictionary
280
     1
281
     1
  3
ACAD_XREC_ROUNDTRIP
360
36A
  0
DICTIONARY
  5
34D
330
2F
100
AcDbDictionary
280
     1
281
     1
  3
ACAD_XREC_ROUNDTRIP
360
34E
  0
DICTIONARY
  5
351
330
31
100
AcDbDictionary
280
     1
281
     1
  3
ACAD_XREC_ROUNDTRIP
360
352
  0
DICTIONARY
  5
34F
330
30
100
AcDbDictionary
280
     1
281
     1
  3
ACAD_XREC_ROUNDTRIP
360
350
  0
DICTIONARY
  5
353
330
32
100
AcDbDictionary
280
     1
281
     1
  3
ACAD_XREC_ROUNDTRIP
360
354
  0
DICTIONARY
  5
35B
330
36
100
AcDbDictionary
280
     1
281
     1
  3
ACAD_XREC_ROUNDTRIP
360
35C
  0
DICTIONARY
  5
363
330
3A
100
AcDbDictionary
280
     1
281
     1
  3
ACAD_XREC_ROUNDTRIP
360
364
  0
DICTIONARY
  5
357
330
34
100
AcDbDictionary
280
     1
281
     1
  3
ACAD_XREC_ROUNDTRIP
360
358
  0
DICTIONARY
  5
359
330
35
100
AcDbDictionary
280
     1
281
     1
  3
ACAD_XREC_ROUNDTRIP
360
35A
  0
DICTIONARY
  5
361
330
39
100
AcDbDictionary
280
     1
281
     1
  3
ACAD_XREC_ROUNDTRIP
360
362
  0
DICTIONARY
  5
345
330
2B
100
AcDbDictionary
280
     1
281
     1
  3
ACAD_XREC_ROUNDTRIP
360
346
  0
DICTIONARY
  5
347
330
2C
100
AcDbDictionary
280
     1
281
     1
  3
ACAD_XREC_ROUNDTRIP
360
348
  0
DICTIONARY
  5
349
330
2D
100
AcDbDictionary
280
     1
281
     1
  3
ACAD_XREC_ROUNDTRIP
360
34A
  0
DICTIONARY
  5
34B
330
2E
100
AcDbDictionary
280
     1
281
     1
  3
ACAD_XREC_ROUNDTRIP
360
34C
  0
DICTIONARY
  5
35F
330
38
100
AcDbDictionary
280
     1
281
     1
  3
ACAD_XREC_ROUNDTRIP
360
360
  0
DICTIONARY
  5
355
330
33
100
AcDbDictionary
280
     1
281
     1
  3
ACAD_XREC_ROUNDTRIP
360
356
  0
DICTIONARY
  5
35D
330
37
100
AcDbDictionary
280
     1
281
     1
  3
ACAD_XREC_ROUNDTRIP
360
35E
  0
XRECORD
  5
368
102
{ACAD_REACTORS
330
367
102
}
330
367
100
AcDbXrecord
280
     1
102
MATERIAL
148
0.0
149
0.0
149
0.0
 93
        0
 94
      127
282
     0
 72
     1
 77
     1
171
     1
175
     1
179
     1
273
     0
  0
XRECORD
  5
366
102
{ACAD_REACTORS
330
365
102
}
330
365
100
AcDbXrecord
280
     1
102
MATERIAL
148
0.0
149
0.0
149
0.0
 93
        0
 94
      127
282
     0
 72
     1
 77
     1
171
     1
175
     1
179
     1
273
     0
  0
XRECORD
  5
36A
102
{ACAD_REACTORS
330
369
102
}
330
369
100
AcDbXrecord
280
     1
102
MATERIAL
148
0.0
149
0.0
149
0.0
 93
        0
 94
      127
282
     0
 72
     1
 77
     1
171
     1
175
     1
179
     1
273
     0
  0
XRECORD
  5
34E
102
{ACAD_REACTORS
330
34D
102
}
330
34D
100
AcDbXrecord
280
     1
102
RTVSPropertyOp0
 70
     1
102
RTVSPropertyOp1
 70
     1
102
RTVSPropertyOp2
 70
     1
102
RTVSPropertyOp3
 70
     1
102
RTVSPropertyOp4
 70
     1
102
RTVSPropertyOp5
 70
     1
102
RTVSPropertyOp6
 70
     1
102
RTVSPropertyOp7
 70
     1
102
RTVSPropertyOp8
 70
     1
102
RTVSPropertyOp9
 70
     1
102
RTVSPropertyOp10
 70
     1
102
RTVSPropertyOp11
 70
     1
102
RTVSPropertyOp12
 70
     1
102
RTVSPropertyOp13
 70
     1
102
RTVSPropertyOp14
 70
     1
102
RTVSPropertyOp15
 70
     1
102
RTVSPropertyOp16
 70
     1
102
RTVSPropertyOp17
 70
     1
102
RTVSPropertyOp18
 70
     1
102
RTVSPropertyOp19
 70
     1
102
RTVSPropertyOp20
 70
     1
102
RTVSPropertyOp21
 70
     1
102
RTVSPropertyOp22
 70
     1
102
RTVSPropertyOp23
 70
     1
102
RTVSPropertyOp24
 70
     1
102
RTVSPropertyOp25
 70
     1
102
RTVSPropertyOp26
 70
     1
102
RTVSPropertyOp27
 70
     1
102
RTVSPropertyOp28
 70
     1
102
RTVSPropertyOp29
 70
     1
102
RTVSPropertyOp30
 70
     1
102
RTVSPropertyOp31
 70
     1
102
RTVSPropertyOp32
 70
     1
  0
XRECORD
  5
352
102
{ACAD_REACTORS
330
351
102
}
330
351
100
AcDbXrecord
280
     1
102
RTVSPropertyOp0
 70
     1
102
RTVSPropertyOp1
 70
     1
102
RTVSPropertyOp2
 70
     1
102
RTVSPropertyOp3
 70
     1
102
RTVSPropertyOp4
 70
     1
102
RTVSPropertyOp5
 70
     1
102
RTVSPropertyOp6
 70
     1
102
RTVSPropertyOp7
 70
     1
102
RTVSPropertyOp8
 70
     1
102
RTVSPropertyOp9
 70
     1
102
RTVSPropertyOp10
 70
     1
102
RTVSPropertyOp11
 70
     1
102
RTVSPropertyOp12
 70
     1
102
RTVSPropertyOp13
 70
     1
102
RTVSPropertyOp14
 70
     1
102
RTVSPropertyOp15
 70
     1
102
RTVSPropertyOp16
 70
     1
102
RTVSPropertyOp17
 70
     1
102
RTVSPropertyOp18
 70
     1
102
RTVSPropertyOp19
 70
     1
102
RTVSPropertyOp20
 70
     1
102
RTVSPropertyOp21
 70
     1
102
RTVSPropertyOp22
 70
     1
102
RTVSPropertyOp23
 70
     1
102
RTVSPropertyOp24
 70
     1
102
RTVSPropertyOp25
 70
     1
102
RTVSPropertyOp26
 70
     1
102
RTVSPropertyOp27
 70
     1
102
RTVSPropertyOp28
 70
     1
102
RTVSPropertyOp29
 70
     1
102
RTVSPropertyOp30
 70
     1
102
RTVSPropertyOp31
 70
     1
102
RTVSPropertyOp32
 70
     1
  0
XRECORD
  5
350
102
{ACAD_REACTORS
330
34F
102
}
330
34F
100
AcDbXrecord
280
     1
102
RTVSPropertyOp0
 70
     1
102
RTVSPropertyOp1
 70
     1
102
RTVSPropertyOp2
 70
     1
102
RTVSPropertyOp3
 70
     1
102
RTVSPropertyOp4
 70
     1
102
RTVSPropertyOp5
 70
     1
102
RTVSPropertyOp6
 70
     1
102
RTVSPropertyOp7
 70
     1
102
RTVSPropertyOp8
 70
     1
102
RTVSPropertyOp9
 70
     1
102
RTVSPropertyOp10
 70
     1
102
RTVSPropertyOp11
 70
     1
102
RTVSPropertyOp12
 70
     1
102
RTVSPropertyOp13
 70
     1
102
RTVSPropertyOp14
 70
     1
102
RTVSPropertyOp15
 70
     1
102
RTVSPropertyOp16
 70
     1
102
RTVSPropertyOp17
 70
     1
102
RTVSPropertyOp18
 70
     1
102
RTVSPropertyOp19
 70
     1
102
RTVSPropertyOp20
 70
     1
102
RTVSPropertyOp21
 70
     1
102
RTVSPropertyOp22
 70
     1
102
RTVSPropertyOp23
 70
     1
102
RTVSPropertyOp24
 70
     1
102
RTVSPropertyOp25
 70
     1
102
RTVSPropertyOp26
 70
     1
102
RTVSPropertyOp27
 70
     1
102
RTVSPropertyOp28
 70
     1
102
RTVSPropertyOp29
 70
     1
102
RTVSPropertyOp30
 70
     1
102
RTVSPropertyOp31
 70
     1
102
RTVSPropertyOp32
 70
     1
  0
XRECORD
  5
354
102
{ACAD_REACTORS
330
353
102
}
330
353
100
AcDbXrecord
280
     1
102
RTVSPropertyOp0
 70
     1
102
RTVSPropertyOp1
 70
     1
102
RTVSPropertyOp2
 70
     1
102
RTVSPropertyOp3
 70
     1
102
RTVSPropertyOp4
 70
     1
102
RTVSPropertyOp5
 70
     1
102
RTVSPropertyOp6
 70
     1
102
RTVSPropertyOp7
 70
     1
102
RTVSPropertyOp8
 70
     1
102
RTVSPropertyOp9
 70
     1
102
RTVSPropertyOp10
 70
     1
102
RTVSPropertyOp11
 70
     1
102
RTVSPropertyOp12
 70
     1
102
RTVSPropertyOp13
 70
     1
102
RTVSPropertyOp14
 70
     1
102
RTVSPropertyOp15
 70
     1
102
RTVSPropertyOp16
 70
     1
102
RTVSPropertyOp17
 70
     1
102
RTVSPropertyOp18
 70
     1
102
RTVSPropertyOp19
 70
     1
102
RTVSPropertyOp20
 70
     1
102
RTVSPropertyOp21
 70
     1
102
RTVSPropertyOp22
 70
     1
102
RTVSPropertyOp23
 70
     1
102
RTVSPropertyOp24
 70
     1
102
RTVSPropertyOp25
 70
     1
102
RTVSPropertyOp26
 70
     1
102
RTVSPropertyOp27
 70
     1
102
RTVSPropertyOp28
 70
     1
102
RTVSPropertyOp29
 70
     1
102
RTVSPropertyOp30
 70
     1
102
RTVSPropertyOp31
 70
     1
102
RTVSPropertyOp32
 70
     1
  0
XRECORD
  5
35C
102
{ACAD_REACTORS
330
35B
102
}
330
35B
100
AcDbXrecord
280
     1
102
RTVSPropertyOp0
 70
     1
102
RTVSPropertyOp1
 70
     1
102
RTVSPropertyOp2
 70
     1
102
RTVSPropertyOp3
 70
     1
102
RTVSPropertyOp4
 70
     1
102
RTVSPropertyOp5
 70
     1
102
RTVSPropertyOp6
 70
     1
102
RTVSPropertyOp7
 70
     1
102
RTVSPropertyOp8
 70
     1
102
RTVSPropertyOp9
 70
     1
102
RTVSPropertyOp10
 70
     1
102
RTVSPropertyOp11
 70
     1
102
RTVSPropertyOp12
 70
     1
102
RTVSPropertyOp13
 70
     1
102
RTVSPropertyOp14
 70
     1
102
RTVSPropertyOp15
 70
     1
102
RTVSPropertyOp16
 70
     1
102
RTVSPropertyOp17
 70
     1
102
RTVSPropertyOp18
 70
     1
102
RTVSPropertyOp19
 70
     1
102
RTVSPropertyOp20
 70
     1
102
RTVSPropertyOp21
 70
     1
102
RTVSPropertyOp22
 70
     1
102
RTVSPropertyOp23
 70
     1
102
RTVSPropertyOp24
 70
     1
102
RTVSPropertyOp25
 70
     1
102
RTVSPropertyOp26
 70
     1
102
RTVSPropertyOp27
 70
     1
102
RTVSPropertyOp28
 70
     1
102
RTVSPropertyOp29
 70
     1
102
RTVSPropertyOp30
 70
     1
102
RTVSPropertyOp31
 70
     1
102
RTVSPropertyOp32
 70
     1
  0
XRECORD
  5
364
102
{ACAD_REACTORS
330
363
102
}
330
363
100
AcDbXrecord
280
     1
102
RTVSPropertyOp0
 70
     1
102
RTVSPropertyOp1
 70
     1
102
RTVSPropertyOp2
 70
     1
102
RTVSPropertyOp3
 70
     1
102
RTVSPropertyOp4
 70
     1
102
RTVSPropertyOp5
 70
     1
102
RTVSPropertyOp6
 70
     1
102
RTVSPropertyOp7
 70
     1
102
RTVSPropertyOp8
 70
     1
102
RTVSPropertyOp9
 70
     1
102
RTVSPropertyOp10
 70
     1
102
RTVSPropertyOp11
 70
     1
102
RTVSPropertyOp12
 70
     1
102
RTVSPropertyOp13
 70
     1
102
RTVSPropertyOp14
 70
     1
102
RTVSPropertyOp15
 70
     1
102
RTVSPropertyOp16
 70
     1
102
RTVSPropertyOp17
 70
     1
102
RTVSPropertyOp18
 70
     1
102
RTVSPropertyOp19
 70
     1
102
RTVSPropertyOp20
 70
     1
102
RTVSPropertyOp21
 70
     1
102
RTVSPropertyOp22
 70
     1
102
RTVSPropertyOp23
 70
     1
102
RTVSPropertyOp24
 70
     1
102
RTVSPropertyOp25
 70
     1
102
RTVSPropertyOp26
 70
     1
102
RTVSPropertyOp27
 70
     1
102
RTVSPropertyOp28
 70
     1
102
RTVSPropertyOp29
 70
     1
102
RTVSPropertyOp30
 70
     1
102
RTVSPropertyOp31
 70
     1
102
RTVSPropertyOp32
 70
     1
  0
XRECORD
  5
358
102
{ACAD_REACTORS
330
357
102
}
330
357
100
AcDbXrecord
280
     1
102
RTVSPropertyOp0
 70
     1
102
RTVSPropertyOp1
 70
     1
102
RTVSPropertyOp2
 70
     1
102
RTVSPropertyOp3
 70
     1
102
RTVSPropertyOp4
 70
     1
102
RTVSPropertyOp5
 70
     1
102
RTVSPropertyOp6
 70
     1
102
RTVSPropertyOp7
 70
     1
102
RTVSPropertyOp8
 70
     1
102
RTVSPropertyOp9
 70
     1
102
RTVSPropertyOp10
 70
     1
102
RTVSPropertyOp11
 70
     1
102
RTVSPropertyOp12
 70
     1
102
RTVSPropertyOp13
 70
     1
102
RTVSPropertyOp14
 70
     1
102
RTVSPropertyOp15
 70
     1
102
RTVSPropertyOp16
 70
     1
102
RTVSPropertyOp17
 70
     1
102
RTVSPropertyOp18
 70
     1
102
RTVSPropertyOp19
 70
     1
102
RTVSPropertyOp20
 70
     1
102
RTVSPropertyOp21
 70
     1
102
RTVSPropertyOp22
 70
     1
102
RTVSPropertyOp23
 70
     1
102
RTVSPropertyOp24
 70
     1
102
RTVSPropertyOp25
 70
     1
102
RTVSPropertyOp26
 70
     1
102
RTVSPropertyOp27
 70
     1
102
RTVSPropertyOp28
 70
     1
102
RTVSPropertyOp29
 70
     1
102
RTVSPropertyOp30
 70
     1
102
RTVSPropertyOp31
 70
     1
102
RTVSPropertyOp32
 70
     1
  0
XRECORD
  5
35A
102
{ACAD_REACTORS
330
359
102
}
330
359
100
AcDbXrecord
280
     1
102
RTVSPropertyOp0
 70
     1
102
RTVSPropertyOp1
 70
     1
102
RTVSPropertyOp2
 70
     1
102
RTVSPropertyOp3
 70
     1
102
RTVSPropertyOp4
 70
     1
102
RTVSPropertyOp5
 70
     1
102
RTVSPropertyOp6
 70
     1
102
RTVSPropertyOp7
 70
     1
102
RTVSPropertyOp8
 70
     1
102
RTVSPropertyOp9
 70
     1
102
RTVSPropertyOp10
 70
     1
102
RTVSPropertyOp11
 70
     1
102
RTVSPropertyOp12
 70
     1
102
RTVSPropertyOp13
 70
     1
102
RTVSPropertyOp14
 70
     1
102
RTVSPropertyOp15
 70
     1
102
RTVSPropertyOp16
 70
     1
102
RTVSPropertyOp17
 70
     1
102
RTVSPropertyOp18
 70
     1
102
RTVSPropertyOp19
 70
     1
102
RTVSPropertyOp20
 70
     1
102
RTVSPropertyOp21
 70
     1
102
RTVSPropertyOp22
 70
     1
102
RTVSPropertyOp23
 70
     1
102
RTVSPropertyOp24
 70
     1
102
RTVSPropertyOp25
 70
     1
102
RTVSPropertyOp26
 70
     1
102
RTVSPropertyOp27
 70
     1
102
RTVSPropertyOp28
 70
     1
102
RTVSPropertyOp29
 70
     1
102
RTVSPropertyOp30
 70
     1
102
RTVSPropertyOp31
 70
     1
102
RTVSPropertyOp32
 70
     1
  0
XRECORD
  5
362
102
{ACAD_REACTORS
330
361
102
}
330
361
100
AcDbXrecord
280
     1
102
RTVSPropertyOp0
 70
     1
102
RTVSPropertyOp1
 70
     1
102
RTVSPropertyOp2
 70
     1
102
RTVSPropertyOp3
 70
     1
102
RTVSPropertyOp4
 70
     1
102
RTVSPropertyOp5
 70
     1
102
RTVSPropertyOp6
 70
     1
102
RTVSPropertyOp7
 70
     1
102
RTVSPropertyOp8
 70
     1
102
RTVSPropertyOp9
 70
     1
102
RTVSPropertyOp10
 70
     1
102
RTVSPropertyOp11
 70
     1
102
RTVSPropertyOp12
 70
     1
102
RTVSPropertyOp13
 70
     1
102
RTVSPropertyOp14
 70
     1
102
RTVSPropertyOp15
 70
     1
102
RTVSPropertyOp16
 70
     1
102
RTVSPropertyOp17
 70
     1
102
RTVSPropertyOp18
 70
     1
102
RTVSPropertyOp19
 70
     1
102
RTVSPropertyOp20
 70
     1
102
RTVSPropertyOp21
 70
     1
102
RTVSPropertyOp22
 70
     1
102
RTVSPropertyOp23
 70
     1
102
RTVSPropertyOp24
 70
     1
102
RTVSPropertyOp25
 70
     1
102
RTVSPropertyOp26
 70
     1
102
RTVSPropertyOp27
 70
     1
102
RTVSPropertyOp28
 70
     1
102
RTVSPropertyOp29
 70
     1
102
RTVSPropertyOp30
 70
     1
102
RTVSPropertyOp31
 70
     1
102
RTVSPropertyOp32
 70
     1
  0
XRECORD
  5
346
102
{ACAD_REACTORS
330
345
102
}
330
345
100
AcDbXrecord
280
     1
102
RTVSPropertyOp0
 70
     1
102
RTVSPropertyOp1
 70
     1
102
RTVSPropertyOp2
 70
     1
102
RTVSPropertyOp3
 70
     1
102
RTVSPropertyOp4
 70
     1
102
RTVSPropertyOp5
 70
     1
102
RTVSPropertyOp6
 70
     1
102
RTVSPropertyOp7
 70
     1
102
RTVSPropertyOp8
 70
     1
102
RTVSPropertyOp9
 70
     1
102
RTVSPropertyOp10
 70
     1
102
RTVSPropertyOp11
 70
     1
102
RTVSPropertyOp12
 70
     1
102
RTVSPropertyOp13
 70
     1
102
RTVSPropertyOp14
 70
     1
102
RTVSPropertyOp15
 70
     1
102
RTVSPropertyOp16
 70
     1
102
RTVSPropertyOp17
 70
     1
102
RTVSPropertyOp18
 70
     1
102
RTVSPropertyOp19
 70
     1
102
RTVSPropertyOp20
 70
     1
102
RTVSPropertyOp21
 70
     1
102
RTVSPropertyOp22
 70
     1
102
RTVSPropertyOp23
 70
     1
102
RTVSPropertyOp24
 70
     1
102
RTVSPropertyOp25
 70
     1
102
RTVSPropertyOp26
 70
     1
102
RTVSPropertyOp27
 70
     1
102
RTVSPropertyOp28
 70
     1
102
RTVSPropertyOp29
 70
     1
102
RTVSPropertyOp30
 70
     1
102
RTVSPropertyOp31
 70
     1
102
RTVSPropertyOp32
 70
     1
  0
XRECORD
  5
348
102
{ACAD_REACTORS
330
347
102
}
330
347
100
AcDbXrecord
280
     1
102
RTVSPropertyOp0
 70
     1
102
RTVSPropertyOp1
 70
     1
102
RTVSPropertyOp2
 70
     1
102
RTVSPropertyOp3
 70
     1
102
RTVSPropertyOp4
 70
     1
102
RTVSPropertyOp5
 70
     1
102
RTVSPropertyOp6
 70
     1
102
RTVSPropertyOp7
 70
     1
102
RTVSPropertyOp8
 70
     1
102
RTVSPropertyOp9
 70
     1
102
RTVSPropertyOp10
 70
     1
102
RTVSPropertyOp11
 70
     1
102
RTVSPropertyOp12
 70
     1
102
RTVSPropertyOp13
 70
     1
102
RTVSPropertyOp14
 70
     1
102
RTVSPropertyOp15
 70
     1
102
RTVSPropertyOp16
 70
     1
102
RTVSPropertyOp17
 70
     1
102
RTVSPropertyOp18
 70
     1
102
RTVSPropertyOp19
 70
     1
102
RTVSPropertyOp20
 70
     1
102
RTVSPropertyOp21
 70
     1
102
RTVSPropertyOp22
 70
     1
102
RTVSPropertyOp23
 70
     1
102
RTVSPropertyOp24
 70
     1
102
RTVSPropertyOp25
 70
     1
102
RTVSPropertyOp26
 70
     1
102
RTVSPropertyOp27
 70
     1
102
RTVSPropertyOp28
 70
     1
102
RTVSPropertyOp29
 70
     1
102
RTVSPropertyOp30
 70
     1
102
RTVSPropertyOp31
 70
     1
102
RTVSPropertyOp32
 70
     1
  0
XRECORD
  5
34A
102
{ACAD_REACTORS
330
349
102
}
330
349
100
AcDbXrecord
280
     1
102
RTVSPropertyOp0
 70
     1
102
RTVSPropertyOp1
 70
     1
102
RTVSPropertyOp2
 70
     1
102
RTVSPropertyOp3
 70
     1
102
RTVSPropertyOp4
 70
     1
102
RTVSPropertyOp5
 70
     1
102
RTVSPropertyOp6
 70
     1
102
RTVSPropertyOp7
 70
     1
102
RTVSPropertyOp8
 70
     1
102
RTVSPropertyOp9
 70
     1
102
RTVSPropertyOp10
 70
     1
102
RTVSPropertyOp11
 70
     1
102
RTVSPropertyOp12
 70
     1
102
RTVSPropertyOp13
 70
     1
102
RTVSPropertyOp14
 70
     1
102
RTVSPropertyOp15
 70
     1
102
RTVSPropertyOp16
 70
     1
102
RTVSPropertyOp17
 70
     1
102
RTVSPropertyOp18
 70
     1
102
RTVSPropertyOp19
 70
     1
102
RTVSPropertyOp20
 70
     1
102
RTVSPropertyOp21
 70
     1
102
RTVSPropertyOp22
 70
     1
102
RTVSPropertyOp23
 70
     1
102
RTVSPropertyOp24
 70
     1
102
RTVSPropertyOp25
 70
     1
102
RTVSPropertyOp26
 70
     1
102
RTVSPropertyOp27
 70
     1
102
RTVSPropertyOp28
 70
     1
102
RTVSPropertyOp29
 70
     1
102
RTVSPropertyOp30
 70
     1
102
RTVSPropertyOp31
 70
     1
102
RTVSPropertyOp32
 70
     1
  0
XRECORD
  5
34C
102
{ACAD_REACTORS
330
34B
102
}
330
34B
100
AcDbXrecord
280
     1
102
RTVSPropertyOp0
 70
     1
102
RTVSPropertyOp1
 70
     1
102
RTVSPropertyOp2
 70
     1
102
RTVSPropertyOp3
 70
     1
102
RTVSPropertyOp4
 70
     1
102
RTVSPropertyOp5
 70
     1
102
RTVSPropertyOp6
 70
     1
102
RTVSPropertyOp7
 70
     1
102
RTVSPropertyOp8
 70
     1
102
RTVSPropertyOp9
 70
     1
102
RTVSPropertyOp10
 70
     1
102
RTVSPropertyOp11
 70
     1
102
RTVSPropertyOp12
 70
     1
102
RTVSPropertyOp13
 70
     1
102
RTVSPropertyOp14
 70
     1
102
RTVSPropertyOp15
 70
     1
102
RTVSPropertyOp16
 70
     1
102
RTVSPropertyOp17
 70
     1
102
RTVSPropertyOp18
 70
     1
102
RTVSPropertyOp19
 70
     1
102
RTVSPropertyOp20
 70
     1
102
RTVSPropertyOp21
 70
     1
102
RTVSPropertyOp22
 70
     1
102
RTVSPropertyOp23
 70
     1
102
RTVSPropertyOp24
 70
     1
102
RTVSPropertyOp25
 70
     1
102
RTVSPropertyOp26
 70
     1
102
RTVSPropertyOp27
 70
     1
102
RTVSPropertyOp28
 70
     1
102
RTVSPropertyOp29
 70
     1
102
RTVSPropertyOp30
 70
     1
102
RTVSPropertyOp31
 70
     1
102
RTVSPropertyOp32
 70
     1
  0
XRECORD
  5
360
102
{ACAD_REACTORS
330
35F
102
}
330
35F
100
AcDbXrecord
280
     1
102
RTVSPropertyOp0
 70
     1
102
RTVSPropertyOp1
 70
     1
102
RTVSPropertyOp2
 70
     1
102
RTVSPropertyOp3
 70
     1
102
RTVSPropertyOp4
 70
     1
102
RTVSPropertyOp5
 70
     1
102
RTVSPropertyOp6
 70
     1
102
RTVSPropertyOp7
 70
     1
102
RTVSPropertyOp8
 70
     1
102
RTVSPropertyOp9
 70
     1
102
RTVSPropertyOp10
 70
     1
102
RTVSPropertyOp11
 70
     1
102
RTVSPropertyOp12
 70
     1
102
RTVSPropertyOp13
 70
     1
102
RTVSPropertyOp14
 70
     1
102
RTVSPropertyOp15
 70
     1
102
RTVSPropertyOp16
 70
     1
102
RTVSPropertyOp17
 70
     1
102
RTVSPropertyOp18
 70
     1
102
RTVSPropertyOp19
 70
     1
102
RTVSPropertyOp20
 70
     1
102
RTVSPropertyOp21
 70
     1
102
RTVSPropertyOp22
 70
     1
102
RTVSPropertyOp23
 70
     1
102
RTVSPropertyOp24
 70
     1
102
RTVSPropertyOp25
 70
     1
102
RTVSPropertyOp26
 70
     1
102
RTVSPropertyOp27
 70
     1
102
RTVSPropertyOp28
 70
     1
102
RTVSPropertyOp29
 70
     1
102
RTVSPropertyOp30
 70
     1
102
RTVSPropertyOp31
 70
     1
102
RTVSPropertyOp32
 70
     1
  0
XRECORD
  5
356
102
{ACAD_REACTORS
330
355
102
}
330
355
100
AcDbXrecord
280
     1
102
RTVSPropertyOp0
 70
     1
102
RTVSPropertyOp1
 70
     1
102
RTVSPropertyOp2
 70
     1
102
RTVSPropertyOp3
 70
     1
102
RTVSPropertyOp4
 70
     1
102
RTVSPropertyOp5
 70
     1
102
RTVSPropertyOp6
 70
     1
102
RTVSPropertyOp7
 70
     1
102
RTVSPropertyOp8
 70
     1
102
RTVSPropertyOp9
 70
     1
102
RTVSPropertyOp10
 70
     1
102
RTVSPropertyOp11
 70
     1
102
RTVSPropertyOp12
 70
     1
102
RTVSPropertyOp13
 70
     1
102
RTVSPropertyOp14
 70
     1
102
RTVSPropertyOp15
 70
     1
102
RTVSPropertyOp16
 70
     1
102
RTVSPropertyOp17
 70
     1
102
RTVSPropertyOp18
 70
     1
102
RTVSPropertyOp19
 70
     1
102
RTVSPropertyOp20
 70
     1
102
RTVSPropertyOp21
 70
     1
102
RTVSPropertyOp22
 70
     1
102
RTVSPropertyOp23
 70
     1
102
RTVSPropertyOp24
 70
     1
102
RTVSPropertyOp25
 70
     1
102
RTVSPropertyOp26
 70
     1
102
RTVSPropertyOp27
 70
     1
102
RTVSPropertyOp28
 70
     1
102
RTVSPropertyOp29
 70
     1
102
RTVSPropertyOp30
 70
     1
102
RTVSPropertyOp31
 70
     1
102
RTVSPropertyOp32
 70
     1
  0
XRECORD
  5
35E
102
{ACAD_REACTORS
330
35D
102
}
330
35D
100
AcDbXrecord
280
     1
102
RTVSPropertyOp0
 70
     1
102
RTVSPropertyOp1
 70
     1
102
RTVSPropertyOp2
 70
     1
102
RTVSPropertyOp3
 70
     1
102
RTVSPropertyOp4
 70
     1
102
RTVSPropertyOp5
 70
     1
102
RTVSPropertyOp6
 70
     1
102
RTVSPropertyOp7
 70
     1
102
RTVSPropertyOp8
 70
     1
102
RTVSPropertyOp9
 70
     1
102
RTVSPropertyOp10
 70
     1
102
RTVSPropertyOp11
 70
     1
102
RTVSPropertyOp12
 70
     1
102
RTVSPropertyOp13
 70
     1
102
RTVSPropertyOp14
 70
     1
102
RTVSPropertyOp15
 70
     1
102
RTVSPropertyOp16
 70
     1
102
RTVSPropertyOp17
 70
     1
102
RTVSPropertyOp18
 70
     1
102
RTVSPropertyOp19
 70
     1
102
RTVSPropertyOp20
 70
     1
102
RTVSPropertyOp21
 70
     1
102
RTVSPropertyOp22
 70
     1
102
RTVSPropertyOp23
 70
     1
102
RTVSPropertyOp24
 70
     1
102
RTVSPropertyOp25
 70
     1
102
RTVSPropertyOp26
 70
     1
102
RTVSPropertyOp27
 70
     1
102
RTVSPropertyOp28
 70
     1
102
RTVSPropertyOp29
 70
     1
102
RTVSPropertyOp30
 70
     1
102
RTVSPropertyOp31
 70
     1
102
RTVSPropertyOp32
 70
     1
  0
ENDSEC
  0
EOF
